Имущество с хвостом / Who Gets the Dog? (Хак Ботко / Huck Botko) [2016, США, Комедия, HDRip] Dub (iTunes)

Reply to topic
 
Author
Message

Satyr ®

Gender: Unknown

Longevity: 11 years

Posts: 15401

Reputation: 55 [+] [-]

Satyr · Post 27-Oct-2016 20:15

[Quote] 

Имущество с хвостом / Who Gets the Dog?- Страна: США
Жанр: Комедия
Год выпуска: 2016
Продолжительность: 01:36:02-Перевод: Профессиональный (дублированный) iTunes
Cубтитры: нет-Режиссер: Хак Ботко / Huck Botko-В ролях: Алисия Сильверстоун, Райан Квантен, Рэндолл Батинкофф, Мишель Суини Абрамс, Рэйчел Серда, Кристин А. Доннелли, Эми Дж. Карле, Сьюзи Брэк, Мэтти Райан, Ламар Кертис-Описание: Олив — успешный врач, Клэй — хоккеист-неудачник. Они влюбились, поженились и завели голден-ретривера. Но она мечтала о нормальной семье, а он — о спортивной карьере… И когда дело движется к разводу, бывшие возлюбленные начинают нешуточную борьбу за драгоценного питомца.- -Релиз: MegaPeer-Качество видео: HDRip
Формат видео: AVI
Видео: 688x288 (2.40:1), 23.976 fps, XviD build 73, 951 Kbps
Аудио: 48.0 kHz, MP3, 2 ch, 128 Kbps

MediaInfo

General
Complete name : Downloads\Who.Gets.the.Dog.2016.HDRip.745MB.MegaPeer.avi
Format : AVI
Format/Info : Audio Video Interleave
File size : 745 MiB
Duration : 1h 36mn
Overall bit rate : 1 085 Kbps
Video #0
ID : 0
Format : MPEG-4 Visual
Format profile : Advanced Simple@L5
Format settings, BVOP : 1
Format settings, QPel : No
Format settings, GMC : No warppoints
Format settings, Matrix : Custom
Codec ID : XVID
Codec ID/Hint : XviD
Duration : 1h 36mn
Bit rate : 951 Kbps
Width : 688 pixels
Height : 288 pixels
Display aspect ratio : 2.40:1
Frame rate : 23.976 fps
Color space : YUV
Chroma subsampling : 4:2:0
Bit depth : 8 bits
Scan type : Progressive
Compression mode : Lossy
Bits/(Pixel*Frame) : 0.200
Stream size : 653 MiB (88%)
Writing library : XviD 73
Audio #1
ID : 1
Format : MPEG Audio
Format version : Version 1
Format profile : Layer 3
Mode : Joint stereo
Mode extension : MS Stereo
Codec ID : 55
Codec ID/Hint : MP3
Duration : 1h 36mn
Bit rate mode : Constant
Bit rate : 128 Kbps
Channel(s) : 2 channels
Sampling rate : 48.0 KHz
Compression mode : Lossy
Stream size : 87.9 MiB (12%)
Alignment : Aligned on interleaves
Interleave, duration : 167 ms (4.00 video frames)
Interleave, preload duration : 216 ms
Title : iTunes

Скриншот c названием фильма

Скриншоты

[Profile]  [PM] 
Display posts:    
Reply to topic

Current time is: 18-Sep 15:23

All times are UTC + 2



You cannot post new topics in this forum
You cannot reply to topics in this forum
You cannot edit your posts in this forum
You cannot delete your posts in this forum
You cannot vote in polls in this forum
You cannot attach files in this forum
You cannot download files in this forum