Очень плохие мамочки / Bad Moms (Джон Лукас / Jon Lucas, Скотт Мур / Scott Moore) [2016, США, комедия, HDRip] Dub (iTunes)

Reply to topic
 
Author
Message

Satyr ®

Gender: Unknown

Longevity: 11 years

Posts: 15401

Reputation: 55 [+] [-]

Satyr · Post 28-Oct-2016 12:35

[Quote] 

Очень плохие мамочки / Bad Moms- Страна: США
Жанр: Комедия
Год выпуска: 2016
Продолжительность: 01:40:57-Перевод: Профессиональный (дублированный) iTunes
Cубтитры: нет-Режиссер: Джон Лукас / Jon Lucas, Скотт Мур / Scott Moore-В ролях: Мила Кунис, Кэтрин Хан, Кристен Белл, Кристина Эпплгейт, Джада Пинкетт Смит, Энни Мумоло, Уна Лоуренс, Эмджей Энтони, Дэвид Уолтон, Кларк Дьюк-Описание: Идеальная мать, прекрасная жена, хорошая домохозяйка с успешной карьерой… Но стоит немного расслабиться, как тебе сразу напоминают о твоих обязанностях. Почему только мужчины имеют право развлекаться? Сколько же можно это терпеть?! Пора команде отчаянных мамочек пуститься во все тяжкие.- / -Качество видео: HDRip
Формат видео: AVI-Видео: 688x288 (2.40:1), 23.976 fps, XviD build 73, 899 Kbps
Аудио: 48.0 kHz, MP3, 2 ch, 128 Kbps-Релиз: MegaPeer-

MediaInfo

General
Complete name : \Downloads\Bad.Moms.2016.HDRip.745MB.MegaPeer.avi
Format : AVI
Format/Info : Audio Video Interleave
File size : 746 MiB
Duration : 1h 40mn
Overall bit rate : 1 033 Kbps
Video #0
ID : 0
Format : MPEG-4 Visual
Format profile : Advanced Simple@L5
Format settings, BVOP : 1
Format settings, QPel : No
Format settings, GMC : No warppoints
Format settings, Matrix : Custom
Codec ID : XVID
Codec ID/Hint : XviD
Duration : 1h 40mn
Bit rate : 899 Kbps
Width : 688 pixels
Height : 288 pixels
Display aspect ratio : 2.40:1
Frame rate : 23.976 fps
Color space : YUV
Chroma subsampling : 4:2:0
Bit depth : 8 bits
Scan type : Progressive
Compression mode : Lossy
Bits/(Pixel*Frame) : 0.189
Stream size : 649 MiB (87%)
Writing library : XviD 73
Audio #1
ID : 1
Format : MPEG Audio
Format version : Version 1
Format profile : Layer 3
Mode : Joint stereo
Mode extension : MS Stereo
Codec ID : 55
Codec ID/Hint : MP3
Duration : 1h 40mn
Bit rate mode : Constant
Bit rate : 128 Kbps
Channel(s) : 2 channels
Sampling rate : 48.0 KHz
Compression mode : Lossy
Stream size : 92.4 MiB (12%)
Alignment : Aligned on interleaves
Interleave, duration : 167 ms (4.00 video frames)
Interleave, preload duration : 216 ms

Скриншот c названием фильма

Скриншоты

[Profile]  [PM] 
Display posts:    
Reply to topic

Current time is: 19-Sep 10:22

All times are UTC + 2



You cannot post new topics in this forum
You cannot reply to topics in this forum
You cannot edit your posts in this forum
You cannot delete your posts in this forum
You cannot vote in polls in this forum
You cannot attach files in this forum
You cannot download files in this forum