Хроники мстителя / Vigilante Diaries (Кристиан Сесма / Christian Sesma) [2016, США, Боевик, HDRip] Dub (iTunes)

Reply to topic
 
Author
Message

Satyr ®

Gender: Unknown

Longevity: 15 years

Posts: 22031

Reputation: 56 [+] [-]

Satyr · Post 01-Nov-2016 11:30

[Quote] 

Хроники мстителя / Vigilante Diaries- Страна: США
Жанр: Боевик
Год выпуска: 2016
Продолжительность: 01:47:43
Перевод: Профессиональный (дублированный) - iTunes
Cубтитры: нет
Оригинальная аудиодорожка: нет
Режиссер: Кристиан Сесма / Christian Sesma
В ролях: Джейсон Мьюз, Куинтон Джексон, Пол Слоун, Кевин Л. Уокер, Майкл Джей Уайт, Майкл Мэдсен, Майк Хаттон, Джеймс Руссо, Арман Ншанян, Сальвадор Герерро мл.
Описание: Команда крутых спецагентов, опасных, взрывных, ироничных, с богатым чувством юмора, объединяется под началом загадочного Мстителя для борьбы с мировой преступностью.

Качество видео: HDRip
Формат видео: AVI
Видео: 688x288 (2.40:1), 23.976 fps, XviD build 73, 835 Kbps
Аудио: 48.0 kHz, MPEG Layer 3, 2 ch, 128 kbps

MediaInfo

General
Complete name : Downloads\Хроники мстителя.2016.HDRip
Format : AVI
Format/Info : Audio Video Interleave
File size : 746 MiB
Duration : 1h 47mn
Overall bit rate : 969 Kbps
Video #0
ID : 0
Format : MPEG-4 Visual
Format profile : Advanced Simple@L5
Format settings, BVOP : 1
Format settings, QPel : No
Format settings, GMC : No warppoints
Format settings, Matrix : Custom
Codec ID : XVID
Codec ID/Hint : XviD
Duration : 1h 47mn
Bit rate : 835 Kbps
Width : 688 pixels
Height : 288 pixels
Display aspect ratio : 2.40:1
Frame rate : 23.976 fps
Color space : YUV
Chroma subsampling : 4:2:0
Bit depth : 8 bits
Scan type : Progressive
Compression mode : Lossy
Bits/(Pixel*Frame) : 0.176
Stream size : 643 MiB (86%)
Writing library : XviD 73
Audio #1
ID : 1
Format : MPEG Audio
Format version : Version 1
Format profile : Layer 3
Mode : Joint stereo
Mode extension : MS Stereo
Codec ID : 55
Codec ID/Hint : MP3
Duration : 1h 47mn
Bit rate mode : Constant
Bit rate : 128 Kbps
Channel(s) : 2 channels
Sampling rate : 48.0 KHz
Compression mode : Lossy
Stream size : 98.6 MiB (13%)
Alignment : Aligned on interleaves
Interleave, duration : 167 ms (4.00 video frames)
Interleave, preload duration : 216 ms

Скриншот c названием фильма

Скриншоты

[Profile]  [PM] 
Display posts:    
Reply to topic

Current time is: 19-Jul 04:45

All times are UTC + 2



You cannot post new topics in this forum
You cannot reply to topics in this forum
You cannot edit your posts in this forum
You cannot delete your posts in this forum
You cannot vote in polls in this forum
You cannot attach files in this forum
You cannot download files in this forum