Теория тигра / Teorie tygra (Радек Байгар / Radek Bajgar) [2016, Чехия, комедия, драма, DVDRip-AVC] VO (Kass) + Original Cze

Reply to topic
 
Author
Message

Satyr ®

Online

Gender: Unknown

Longevity: 11 years

Posts: 15401

Reputation: 55 [+] [-]

Satyr · Post 01-Nov-2016 11:30

[Quote] 

Теория тигра / Teorie tygra
И укрощенные мужчины могут вырваться на волю.
Страна: Чехия
Жанр: комедия, драма
Год выпуска: 2016
Продолжительность: 01:42:52
Перевод: Одноголосый закадровый (женский) Kass
Cубтитры: нет
Оригинальная аудиодорожка: чешский
Режиссер: Радек Байгар / Radek Bajgar
В ролях: Иржи Бартошка / Jiri Bartoska, Элишка Балцерова / Eliska Balzerova, Татьяна Вильгельмова / Tatiana Vilhelmova, Иржи Гавелка / Jiri Havelka, Якуб Когак / Jakub Kohak, Павла Беретова / Pavla Beretova, Ива Янжурова / Iva Janzurova, Арношт Голдфлам / Arnost Goldflam, Луция Сипосова / Lucia Siposova, Клара Мелишкова / Klara Meliskova, Яромир Дулава / Jaromir Dulava, Тереза Тежка / Tereza Tezka, Ева Салзманнова / Eva Salzmannova, Ондрей Павелка / Ondrej Pavelka, Ивана Углиржова / Ivana Uhlirova, Анна Чтвртничкова / Anna Ctvrtnickova, Цтирад Гетц / Ctirad Gotz, Иржи Бабек / Jiri Babek, Ондрей Малый / Ondrej Maly
Описание: В этой семье три поколения женщин делают всё, буквально всё, чтобы мужья их были счастливы. В том смысле счастливы, в каком это понимают они: здоровый образ жизни, семейный круг и строгое подчинение законам «идеального брака». Женщина, хранительница очага, все знает лучше, когда дело доходит до бытовых проблем. Вообще-то она знает лучше абсолютно всё.
Яну Бергеру в голову не приходит подвергать это сомнению. Живет, как у Христа за пазухой, но почему-то несчастлив. Возможно потому, что живет не своей жизнью. Смерть тестя, погубленного неумолимой заботой тёщи, заставляет его понять это – и начать действовать.
Он готовит побег, вот только довольно странным и диким образом. Симулируя болезнь Алцгеймера. И хотя все быстро выходит из-под контроля, его бунт подхватывает и молодое поколение.
Истинно чешская трагикомедия.
Доп. информация: Раздача DVD - http://torrentsland.com.ua/forum/viewtopic.php?t=5303984
Сэмпл: https://yadi.sk/i/qC2qB26rxoMuH
Качество видео: DVDRip
Формат видео: MKV
Видео: MPEG-4 AVC, 720x576@1024x576, 16:9, 1600 Кбит/с
Аудио 1: Русский (Dolby AC3, 6 ch) 448 Кбит/сек, 48,0 КГц
Аудио 2: Cesky (Dolby AC3, 2 ch) 224 Кбит/сек, 48,0 КГц - отдельным файлом

MediaInfo

Unique ID : 220995584649172360973623543278364455840 (0xA642338F4C90DF88A9211E737512F3A0)
Complete name : C:\Downloads\Teorie_Tygra_2016_DVDrip_RusVO+Cze\Teorie_Tygra_2016_DVDrip_RusVO.mkv
Format : Matroska
Format version : Version 4 / Version 2
File size : 1.47 GiB
Duration : 1h 42mn
Overall bit rate : 2 049 Kbps
Encoded date : UTC 2016-10-12T21:32:55Z
Writing application : mkvmerge v9.5.0 ('Quiet Fire') 64bit
Writing library : Lavf55.12.0
DURATION : 01:42:51.808000000
NUMBER_OF_FRAMES : 192869
NUMBER_OF_BYTES : 345621248
_STATISTICS_WRITING_APP : mkvmerge v9.5.0 ('Quiet Fire') 64bit
_STATISTICS_WRITING_DATE_UTC : 2016-10-29 18:23:19
_STATISTICS_TAGS : BPS DURATION NUMBER_OF_FRAMES NUMBER_OF_BYTES
Video
ID : 1
Format : AVC
Format/Info : Advanced Video Codec
Format profile : Main@L4
Format settings, CABAC : Yes
Format settings, ReFrames : 7 frames
Codec ID : V_MPEG4/ISO/AVC
Duration : 1h 42mn
Bit rate : 1 600 Kbps
Width : 720 pixels
Height : 576 pixels
Display aspect ratio : 16:9
Frame rate mode : Constant
Frame rate : 25.000 fps
Standard : PAL
Color space : YUV
Chroma subsampling : 4:2:0
Bit depth : 8 bits
Scan type : Progressive
Bits/(Pixel*Frame) : 0.154
Stream size : 1.12 GiB (76%)
Writing library : x264 core 142 r2479 dd79a61
Encoding settings : cabac=1 / ref=7 / deblock=1:-1:-1 / analyse=0x1:0x111 / me=umh / subme=9 / psy=1 / psy_rd=1.00:0.15 / mixed_ref=0 / me_range=24 / chroma_me=1 / trellis=0 / 8x8dct=0 / cqm=0 / deadzone=21,11 / fast_pskip=1 / chroma_qp_offset=-2 / threads=12 / lookahead_threads=1 / sliced_threads=0 / nr=0 / decimate=1 / interlaced=0 / bluray_compat=0 / constrained_intra=0 / bframes=16 / b_pyramid=2 / b_adapt=1 / b_bias=0 / direct=1 / weightb=1 / open_gop=0 / weightp=1 / keyint=250 / keyint_min=25 / scenecut=40 / intra_refresh=0 / rc_lookahead=10 / rc=2pass / mbtree=1 / bitrate=1600 / ratetol=1.0 / qcomp=0.60 / qpmin=0 / qpmax=69 / qpstep=4 / cplxblur=20.0 / qblur=0.5 / vbv_maxrate=20000 / vbv_bufsize=25000 / nal_hrd=none / filler=0 / ip_ratio=1.40 / aq=1:1.00
Default : Yes
Forced : No
Color range : Limited
Color primaries : BT.601 PAL
Transfer characteristics : BT.709
Matrix coefficients : BT.601
DURATION : 01:42:52.320000000
NUMBER_OF_FRAMES : 154308
NUMBER_OF_BYTES : 1234222946
_STATISTICS_WRITING_APP : mkvmerge v9.5.0 ('Quiet Fire') 64bit
_STATISTICS_WRITING_DATE_UTC : 2016-10-29 18:23:19
_STATISTICS_TAGS : BPS DURATION NUMBER_OF_FRAMES NUMBER_OF_BYTES
Audio
ID : 2
Format : AC-3
Format/Info : Audio Coding 3
Mode extension : CM (complete main)
Format settings, Endianness : Big
Codec ID : A_AC3
Duration : 1h 42mn
Bit rate mode : Constant
Bit rate : 448 Kbps
Channel(s) : 6 channels
Channel positions : Front: L C R, Side: L R, LFE
Sampling rate : 48.0 KHz
Compression mode : Lossy
Delay relative to video : -80ms
Stream size : 330 MiB (22%)
Language : Russian
Default : Yes
Forced : No
Menu
00:00:00.000 : :Chapter 1
00:10:56.840 : :Chapter 2
00:18:21.720 : :Chapter 3
00:26:09.720 : :Chapter 4
00:35:41.680 : :Chapter 5
00:42:30.000 : :Chapter 6
00:52:53.600 : :Chapter 7
01:02:58.680 : :Chapter 8
01:12:02.200 : :Chapter 9
01:22:26.400 : :Chapter 10
01:31:15.040 : :Chapter 11
01:39:40.680 : :Chapter 12

Скриншот c названием фильма

Скриншоты





[Profile]  [PM] 
Display posts:    
Reply to topic

Current time is: 20-Sep 22:43

All times are UTC + 2



You cannot post new topics in this forum
You cannot reply to topics in this forum
You cannot edit your posts in this forum
You cannot delete your posts in this forum
You cannot vote in polls in this forum
You cannot attach files in this forum
You cannot download files in this forum