Теория тигра / Teorie tygra (Радек Байгар / Radek Bajgar) [2016, Чехия, комедия, драма, DVDRip] VO (Kass)

Reply to topic
 
Author
Message

Satyr ®

Gender: Unknown

Longevity: 11 years

Posts: 15401

Reputation: 55 [+] [-]

Satyr · Post 01-Nov-2016 15:35

[Quote] 

Теория тигра / Teorie tygra
И укрощенные мужчины могут вырваться на волю.
Страна: Чехия
Жанр: комедия, драма
Год выпуска: 2016
Продолжительность: 01:42:52
Перевод: Одноголосый закадровый (женский) Kass
Cубтитры: нет
Оригинальная аудиодорожка: чешский
Режиссер: Радек Байгар / Radek Bajgar
В ролях: Иржи Бартошка / Jiri Bartoska, Элишка Балцерова / Eliska Balzerova, Татьяна Вильгельмова / Tatiana Vilhelmova, Иржи Гавелка / Jiri Havelka, Якуб Когак / Jakub Kohak, Павла Беретова / Pavla Beretova, Ива Янжурова / Iva Janzurova, Арношт Голдфлам / Arnost Goldflam, Луция Сипосова / Lucia Siposova, Клара Мелишкова / Klara Meliskova, Яромир Дулава / Jaromir Dulava, Тереза Тежка / Tereza Tezka, Ева Салзманнова / Eva Salzmannova, Ондрей Павелка / Ondrej Pavelka, Ивана Углиржова / Ivana Uhlirova, Анна Чтвртничкова / Anna Ctvrtnickova, Цтирад Гетц / Ctirad Gotz, Иржи Бабек / Jiri Babek, Ондрей Малый / Ondrej Maly
Описание: В этой семье три поколения женщин делают всё, буквально всё, чтобы мужья их были счастливы. В том смысле счастливы, в каком это понимают они: здоровый образ жизни, семейный круг и строгое подчинение законам «идеального брака». Женщина, хранительница очага, все знает лучше, когда дело доходит до бытовых проблем. Вообще-то она знает лучше абсолютно всё.
Яну Бергеру в голову не приходит подвергать это сомнению. Живет, как у Христа за пазухой, но почему-то несчастлив. Возможно потому, что живет не своей жизнью. Смерть тестя, погубленного неумолимой заботой тёщи, заставляет его понять это – и начать действовать.
Он готовит побег, вот только довольно странным и диким образом. Симулируя болезнь Алцгеймера. И хотя все быстро выходит из-под контроля, его бунт подхватывает и молодое поколение.
Истинно чешская трагикомедия.
Доп. информация: Раздача DVD - http://torrentsland.com.ua/forum/viewtopic.php?t=5303984
Сэмпл: https://yadi.sk/i/pIjrYrLZxpMi2
Качество видео: DVDRip
Формат видео: AVI
Видео: XviD MPEG-4, 720x400 (1.80:1), 25 fps, ~1598 kbps avg, 0.22 bit/pixel
Аудио: Русский (Dolby AC3, 6 ch) 448 Кбит/сек, 48,0 КГц

MediaInfo

Complete name : C:\Downloads\Teorie_Tygra_2016_DVDrip_RusVO_avi\Teorie_Tygra_2016_DVDrip_RusVO.avi
Format : AVI
Format/Info : Audio Video Interleave
File size : 1.48 GiB
Duration : 1h 42mn
Overall bit rate : 2 056 Kbps
Writing library : VirtualDub build 32842/release
Video
ID : 0
Format : MPEG-4 Visual
Format profile : Advanced Simple@L5
Format settings, BVOP : 2
Format settings, QPel : No
Format settings, GMC : No warppoints
Format settings, Matrix : Default (H.263)
Muxing mode : Packed bitstream
Codec ID : XVID
Codec ID/Hint : XviD
Duration : 1h 42mn
Bit rate : 1 599 Kbps
Width : 720 pixels
Height : 400 pixels
Display aspect ratio : 16:9
Frame rate : 25.000 fps
Color space : YUV
Chroma subsampling : 4:2:0
Bit depth : 8 bits
Scan type : Progressive
Compression mode : Lossy
Bits/(Pixel*Frame) : 0.222
Stream size : 1.15 GiB (78%)
Writing library : XviD 64
Audio
ID : 1
Format : AC-3
Format/Info : Audio Coding 3
Mode extension : CM (complete main)
Format settings, Endianness : Big
Codec ID : 2000
Duration : 1h 42mn
Bit rate mode : Constant
Bit rate : 448 Kbps
Channel(s) : 6 channels
Channel positions : Front: L C R, Side: L R, LFE
Sampling rate : 48.0 KHz
Compression mode : Lossy
Stream size : 330 MiB (22%)
Alignment : Aligned on interleaves
Interleave, duration : 40 ms (1.00 video frame)
Interleave, preload duration : 512 ms

Скриншот c названием фильма

Скриншоты





[Profile]  [PM] 
Display posts:    
Reply to topic

Current time is: 21-Sep 06:00

All times are UTC + 2



You cannot post new topics in this forum
You cannot reply to topics in this forum
You cannot edit your posts in this forum
You cannot delete your posts in this forum
You cannot vote in polls in this forum
You cannot attach files in this forum
You cannot download files in this forum