Воспитательница / Воспитатель / Обожжённые колени / La Tutora / The Tutor / Burnt Knees (Иван Ноэль / Iván Noel) [2016, Аргентина, Драма, мистика, детектив, WEB-DLRip] VO

Reply to topic
 
Author
Message

Satyr ®

Gender: Unknown

Longevity: 11 years

Posts: 15401

Reputation: 55 [+] [-]

Satyr · Post 02-Nov-2016 12:05

[Quote] 

Воспитательница / Воспитатель / Обожжённые колени / La Tutora / The Tutor / Burnt Knees
Страна: Аргентина
Жанр: Драма, мистика, детектив
Год выпуска: 2016
Продолжительность: 01:54:28
Перевод: Одноголосый закадровый [viktor_2838]
Cубтитры: отсутствуют
Оригинальная аудиодорожка: нет
Режиссёр: Иван Ноэль / Iván Noel
В ролях: Валентино Винко, Ромина Пинто, Кристина Мареска, Малена Алонсо, Хулио Мендес, и др.
Описание: Мона получает свою первую работу гувернантки для двух детей-сирот, проживающих в старом заброшенном доме в деревне. Фанатичное стремление перевоспитания этих почти одичавших детей переходит в навязчивую идею и не позволяет женщине заметить, что у подопечных на неё имеются другие планы...

Качество видео: WEB-DLRip [La.Tutora.2017.WEBDL.1080p]
Формат видео: AVI
Video: XviD 67 MPEG-4, 688x288 (2.40:1) 23.976 fps, ~777 kbps avg, 0.164 bit/pixel
Аudio: MP-3 Joint stereo, CBR 128 kbps 2 ch, 48.0 KHz

MediaInfo

ОбщееПолное имя                               : E:\La_Tutora_2017_WEB-DLRip_[torrentsland.com.ua].aviФормат                                   : AVIФормат/Информация                        : Audio Video InterleaveРазмер файла                             : 749 МбайтПродолжительность                        : 1 ч. 54 м.Общий поток                              : 915 Кбит/секНазвание фильма                          : La_Tutora_2017_WEB-DLRip_[torrentsland.com.ua]Режиссёр                                 : OGORODNIKOFFFЖанр                                     : Драма, мистика, детективПрограмма кодирования                    : VirtualDubModRus 1.5.10.2 (build 2542/release)Формат оригинала/Имя                     : Фильмы 2016Правообладатель                          : http://torrentsland.com.ua/forum/profile.php?mode=viewprofile&u=38116300Примечание                               : Рип подготовлен 1 ноября 2016 года
ВидеоИдентификатор : 0Формат : MPEG-4 VisualПрофиль формата : Advanced Simple@L5Параметр BVOP формата : 2Параметр QPel формата : НетПараметр GMC формата : Без точки переходаПараметр матрицы формата : ВыборочнаяИдентификатор кодека : DX50Идентификатор кодека/Подсказка : DivX 5Продолжительность : 1 ч. 54 м.Битрейт : 777 Кбит/секШирина : 688 пикселейВысота : 288 пикселейСоотношение сторон : 2,40:1Частота кадров : 23,976 кадра/секЦветовое пространство : YUVСубдискретизация насыщенности : 4:2:0Битовая глубина : 8 битТип развёртки : ПрогрессивнаяМетод сжатия : С потерямиБит/(Пиксели*Кадры) : 0.164Размер потока : 636 Мбайт (85%)Библиотека кодирования : XviD 67
АудиоИдентификатор : 1Формат : MPEG AudioВерсия формата : Version 1Профиль формата : Layer 3Режим : Joint stereoРасширение режима : MS StereoИдентификатор кодека : 55Идентификатор кодека/Подсказка : MP3Продолжительность : 1 ч. 54 м.Вид битрейта : ПостоянныйБитрейт : 128 Кбит/секКаналы : 2 каналаЧастота : 48,0 КГцМетод сжатия : С потерямиРазмер потока : 105 Мбайт (14%)Выравнивание : Соединение по промежуткамПродолжительность промежутка : 42 мс. (1,00 видеокадр)Время предзагрузки промежутка : 504 мс.Библиотека кодирования : LAME3.98

Скриншот c названием фильма

Название в фильме отсутствует...

Скриншоты

Время раздачи - по возможности.
[Profile]  [PM] 
Display posts:    
Reply to topic

Current time is: 29-Sep 19:25

All times are UTC + 2



You cannot post new topics in this forum
You cannot reply to topics in this forum
You cannot edit your posts in this forum
You cannot delete your posts in this forum
You cannot vote in polls in this forum
You cannot attach files in this forum
You cannot download files in this forum