Воспитательница / Воспитатель / Обожжённые колени / La Tutora / The Tutor / Burnt Knees (Иван Ноэль / Iván Noel) [2016, Аргентина, Драма, мистика, детектив, WEB-DLRip] VO

Reply to topic
 
Author
Message

Satyr ®

Gender: Unknown

Longevity: 11 years

Posts: 15401

Reputation: 55 [+] [-]

Satyr · Post 02-Nov-2016 12:05

[Quote] 

Воспитательница / Воспитатель / Обожжённые колени / La Tutora / The Tutor / Burnt Knees
Страна: Аргентина
Жанр: Драма, мистика, детектив
Год выпуска: 2016
Продолжительность: 01:54:28
Перевод: Одноголосый закадровый [viktor_2838]
Cубтитры: отсутствуют
Оригинальная аудиодорожка: нет
Режиссёр: Иван Ноэль / Iván Noel
В ролях: Валентино Винко, Ромина Пинто, Кристина Мареска, Малена Алонсо, Хулио Мендес, и др.
Описание: Мона получает свою первую работу гувернантки для двух детей-сирот, проживающих в старом заброшенном доме в деревне. Фанатичное стремление перевоспитания этих почти одичавших детей переходит в навязчивую идею и не позволяет женщине заметить, что у подопечных на неё имеются другие планы...

Качество видео: WEB-DLRip [dalemake]
Формат видео: AVI
Video: XviD 67 MPEG-4, 720x304 (2.35:1) 23.976 fps, ~1592 kbps avg, 0.303 bit/pixel
Аudio: AC-3 Dolby Digital, CBR 224 kbps 2 ch (Front: L R) 48.0 KHz

MediaInfo

ОбщееПолное имя                               : E:\La_Tutora_2017_WEB-DLRip_[torrentsland.com.ua].aviФормат                                   : AVIФормат/Информация                        : Audio Video InterleaveРазмер файла                             : 1,46 ГбайтПродолжительность                        : 1 ч. 54 м.Общий поток                              : 1825 Кбит/секНазвание фильма                          : La_Tutora_2017_WEB-DLRip_[torrentsland.com.ua]Режиссёр                                 : networkЖанр                                     : Драма, мистика, детективПрограмма кодирования                    : VirtualDubModRus 1.5.10.2 (build 2542/release)Формат оригинала/Имя                     : Фильмы 2016Правообладатель                          : networkПримечание                               : 1 ноября 2016 г.
ВидеоИдентификатор : 0Формат : MPEG-4 VisualПрофиль формата : Advanced Simple@L5Параметр BVOP формата : 1Параметр QPel формата : НетПараметр GMC формата : Без точки переходаПараметр матрицы формата : ВыборочнаяИдентификатор кодека : DX50Идентификатор кодека/Подсказка : DivX 5Продолжительность : 1 ч. 54 м.Битрейт : 1592 Кбит/секШирина : 720 пикселейВысота : 304 пикселяСоотношение сторон : 2,35:1Частота кадров : 23,976 кадра/секЦветовое пространство : YUVСубдискретизация насыщенности : 4:2:0Битовая глубина : 8 битТип развёртки : ПрогрессивнаяМетод сжатия : С потерямиБит/(Пиксели*Кадры) : 0.303Размер потока : 1,27 Гбайт (87%)Библиотека кодирования : XviD 67
АудиоИдентификатор : 1Формат : AC-3Формат/Информация : Audio Coding 3Расширение режима : CM (complete main)Параметр Endianness формата : BigИдентификатор кодека : 2000Продолжительность : 1 ч. 54 м.Вид битрейта : ПостоянныйБитрейт : 224 Кбит/секКаналы : 2 каналаРасположение каналов : Front: L RЧастота : 48,0 КГцБитовая глубина : 16 битМетод сжатия : С потерямиРазмер потока : 183 Мбайт (12%)Выравнивание : Разделение по промежуткамПродолжительность промежутка : 42 мс. (1,00 видеокадр)Время предзагрузки промежутка : 500 мс.

Скриншот c названием фильма

Название в фильме отсутствует...

Скриншоты

Время раздачи - по возможности.
[Profile]  [PM] 
Display posts:    
Reply to topic

Current time is: 20-Sep 19:52

All times are UTC + 2



You cannot post new topics in this forum
You cannot reply to topics in this forum
You cannot edit your posts in this forum
You cannot delete your posts in this forum
You cannot vote in polls in this forum
You cannot attach files in this forum
You cannot download files in this forum