Афера под прикрытием / The Infiltrator (Брэд Фурман / Brad Furman) [2016, Великобритания, триллер, драма, криминал, BDRip-AVC] Dub

Reply to topic
 
Author
Message

Satyr ®

Gender: Unknown

Longevity: 11 years

Posts: 15401

Reputation: 55 [+] [-]

Satyr · Post 05-Nov-2016 01:45

[Quote] 

Афера под прикрытием / The Infiltrator«The true story of one man against the biggest drug cartel in history»- Страна: Великобритания
Жанр: триллер, драма, криминал, биография
Год выпуска: 2016
Продолжительность: 02:07:08
Перевод: Профессиональный (дублированный) (iTunes)
Оригинальная аудиодорожка: нет
Субтитры: нет
Навигация по главам: есть
Режиссер: Брэд Фурман / Brad Furman
В ролях: Брайан Крэнстон (Robert Mazur), Лиэнн Бест (Bowling Alley Waitress), Дэниэл Мейс (Frankie), Том Вон-Лолор (Steve Cook), Ниал Хэйес (Scott Mazur), Лара Дэкаро (Andrea Mazur), Джульетт Обри (Evelyn Mazur), Олимпия Дукакис (Aunt Vicky), Эми Райан (Bonni Tischler), Джон Легуизамо (Emir Abreu), Джозеф Гилган (Dominic), Джейсон Айзекс (Mark Jackowski)
Описание: Федеральный агент Боб Мейзур, специалист по внедрению в преступные группировки, ставит себе целью раскрыть схему отмывания денег наркокартеля Пабло Эскобара. В одной команде со вспыльчивым оперативником Эмиром Абреу, а также начинающим агентом Кэти Эртс, исполняющей роль подставной невесты Боба, ему предстоит провернуть самую рискованную операцию под прикрытием в истории.- -Качество: BDRip-AVC (исходник - BDRemux|The.Infiltrator.2016.REMUX.1080p.BluRay.AVC.DTS-HD.MA5.1-iFT)
Формат видео: MKV
Видео: x264, 802x336 (2.40:1) 23,976 fps, ~1152 kbps, 0.178 bit/pixel
Аудио: 48 kHz, AC3 Dolby Digital, 3/2 (L,C,R,l,r) + LFE ch, ~384 kbps-

MediaInfo | x264 log

Format : Matroska
Format version : Version 4 / Version 2
File size : 1.39 GiB
Duration : 2h 7 min
Overall bit rate : 1 567 kb/s
Movie name : Афера под прикрытием / The Infiltrator (2016) :: AFM ::
Encoded date : UTC 2016-11-03 15:27:22
Writing application : mkvmerge v8.3.0 ('Over the Horizon') 32bit
Writing library : libebml v1.3.1 + libmatroska v1.4.2
Video
ID : 1
Format : AVC
Format/Info : Advanced Video Codec
Format profile : High@L4.1
Format settings, CABAC : Yes
Format settings, ReFrames : 12 frames
Codec ID : V_MPEG4/ISO/AVC
Duration : 2h 7 min
Bit rate : 1 152 kb/s
Width : 802 pixels
Height : 336 pixels
Display aspect ratio : 2.40:1
Frame rate mode : Constant
Frame rate : 23.976 (24000/1001) FPS
Color space : YUV
Chroma subsampling : 4:2:0
Bit depth : 8 bits
Scan type : Progressive
Bits/(Pixel*Frame) : 0.178
Stream size : 1.02 GiB (74%)
Title : BDRip by AFM
Writing library : x264 core 148 r2721+55 e19946b t_mod_Custom [8-bit@all X86_64]
Encoding settings : cabac=1 / ref=12 / deblock=1:-2:-2 / analyse=0x3:0x113 / me=umh / subme=10 / psy=1 / fade_compensate=0.00 / psy_rd=1.00:0.00 / mixed_ref=1 / me_range=32 / chroma_me=1 / trellis=2 / 8x8dct=1 / cqm=0 / deadzone=21,11 / fast_pskip=0 / chroma_qp_offset=-2 / threads=6 / lookahead_threads=1 / sliced_threads=0 / nr=0 / decimate=1 / interlaced=0 / bluray_compat=0 / constrained_intra=0 / fgo=0 / bframes=15 / b_pyramid=2 / b_adapt=2 / b_bias=0 / direct=1 / weightb=1 / open_gop=0 / weightp=2 / keyint=240 / keyint_min=23 / scenecut=40 / intra_refresh=0 / rc_lookahead=40 / rc=crf / mbtree=0 / crf=19.4000 / qcomp=0.65 / qpmin=0:0:0 / qpmax=69:69:69 / qpstep=4 / vbv_maxrate=50000 / vbv_bufsize=62500 / crf_max=0.0 / nal_hrd=none / filler=0 / ip_ratio=1.35 / pb_ratio=1.30 / aq=3:0.80 / aq-sensitivity=10.00 / aq-factor=1.00:1.00:1.00 / aq2=0 / aq3=0 / zones=175570,182903,q=30
Language : English
Default : Yes
Forced : No
Audio
ID : 2
Format : AC-3
Format/Info : Audio Coding 3
Mode extension : CM (complete main)
Format settings, Endianness : Big
Codec ID : A_AC3
Duration : 2h 7 min
Bit rate mode : Constant
Bit rate : 384 kb/s
Channel(s) : 6 channels
Channel positions : Front: L C R, Side: L R, LFE
Sampling rate : 48.0 kHz
Frame rate : 31.250 FPS (1536 spf)
Compression mode : Lossy
Stream size : 349 MiB (25%)
Title : Dub, AC3 5.1 ~384 kbps
Language : Russian
Default : Yes
Forced : No
Menu
00:00:00.000 : en:Chapter 01
00:09:01.666 : en:Chapter 02
00:17:00.686 : en:Chapter 03
00:24:48.653 : en:Chapter 04
00:28:36.881 : en:Chapter 05
00:35:12.193 : en:Chapter 06
00:42:31.340 : en:Chapter 07
00:51:42.724 : en:Chapter 08
00:57:40.832 : en:Chapter 09
01:02:47.805 : en:Chapter 10
01:07:41.474 : en:Chapter 11
01:17:04.661 : en:Chapter 12
01:24:18.553 : en:Chapter 13
01:31:43.831 : en:Chapter 14
01:40:58.969 : en:Chapter 15
01:47:44.249 : en:Chapter 16
01:52:50.221 : en:Chapter 17
01:58:14.128 : en:Chapter 18
02:07:08.370 : en:Chapter 19

x264

x264 [info]: frame I:1434 Avg QP:19.08 size: 33329
x264 [info]: frame P:36871 Avg QP:20.59 size: 13212
x264 [info]: frame B:144598 Avg QP:22.62 size: 4092
x264 [info]: consecutive B-frames: 1.7% 1.6% 6.3% 20.1% 17.1% 35.7% 5.2% 3.6% 2.0% 1.3% 0.9% 1.3% 0.8% 1.9% 0.3% 0.2%
x264 [info]: mb I I16..4: 6.6% 72.0% 21.4%
x264 [info]: mb P I16..4: 1.3% 11.1% 2.1% P16..4: 38.4% 25.9% 13.9% 0.0% 0.0% skip: 7.3%
x264 [info]: mb B I16..4: 0.1% 1.0% 0.2% B16..8: 38.8% 9.5% 3.0% direct: 4.3% skip:43.1% L0:42.7% L1:45.1% BI:12.1%
x264 [info]: 8x8 transform intra:75.9% inter:64.3%
x264 [info]: coded y,uvDC,uvAC intra: 83.0% 83.8% 60.4% inter: 20.1% 17.0% 3.3%
x264 [info]: i16 v,h,dc,p: 29% 26% 7% 38%
x264 [info]: i8 v,h,dc,ddl,ddr,vr,hd,vl,hu: 10% 11% 10% 9% 12% 13% 12% 11% 12%
x264 [info]: i4 v,h,dc,ddl,ddr,vr,hd,vl,hu: 9% 18% 4% 9% 14% 13% 12% 10% 11%
x264 [info]: i8c dc,h,v,p: 35% 26% 20% 19%
x264 [info]: Weighted P-Frames: Y:5.8% UV:3.7%
x264 [info]: ref P L0: 48.9% 12.8% 15.5% 5.6% 4.6% 3.2% 2.9% 1.5% 1.5% 1.2% 1.2% 1.1% 0.1% 0.0%
x264 [info]: ref B L0: 75.1% 10.2% 5.2% 2.7% 1.9% 1.6% 1.2% 0.8% 0.7% 0.4% 0.2%
x264 [info]: ref B L1: 94.0% 6.0%
x264 [info]: kb/s:1181.45

Скриншоты

с названием

[Profile]  [PM] 
Display posts:    
Reply to topic

Current time is: 18-Sep 15:26

All times are UTC + 2



You cannot post new topics in this forum
You cannot reply to topics in this forum
You cannot edit your posts in this forum
You cannot delete your posts in this forum
You cannot vote in polls in this forum
You cannot attach files in this forum
You cannot download files in this forum