Абсолютная власть / Imperium (Дэниэл Рагуссис / Daniel Ragussis) [2016, США, криминальная драма, триллер, HDRip] MVO (Omsbird records & Paradox)

Reply to topic
 
Author
Message

Satyr ®

Gender: Unknown

Longevity: 11 years

Posts: 15401

Reputation: 55 [+] [-]

Satyr · Post 06-Nov-2016 22:40

[Quote] 

Абсолютная власть / Imperium
Страна: США
Жанр: Криминальная драма, триллер
Год выпуска: 2016
Продолжительность: 01:48:36
Перевод: Любительский (многоголосый закадровый) Omsbird records & Paradox
Cубтитры: отсутствуют
Оригинальная аудиодорожка: нет
Режиссер: Дэниэл Рагуссис / Daniel Ragussis
В ролях: Дэниэл Рэдклифф, Тони Коллетт, Трэйси Леттс, Сэм Траммелл, Нестор Карбонелл, Крис Салливан, Сет Нумрик, Павел Шайда, Берн Горман, Ванесса Оре, Джейссон Финни, Дэвид Аранович, Пол Х Чэпмен, Дэвид Медоуз, и др.
Описание: Согласно заданию агент ФБР под прикрытием, для предотвращения готовящегося крупномасштабного террористического акта, должен внедриться в неонацистскую группировку "Абсолютная власть" – криминального и террористического толка. Он с успехом справляется с заданием и внедряется в группировку...
Однако, на чьей стороне окажется в итоге агент под прикрытием?


Качество видео: HDRip
Формат видео: AVI
Video: XviD 73 MPEG-4, 688x288 (2.40:1) 23.976 fps, ~826 kbps avg, 0.174 bit/pixel
Аudio: MP-3 Joint stereo, CBR 128 kbps 2 ch, 48.0 KHz

MediaInfo

ОбщееПолное имя                               : E:\Новая папка745\Imperium_2016_HDRip_[torrentsland.com.ua].aviФормат                                   : AVIФормат/Информация                        : Audio Video InterleaveРазмер файла                             : 748 МбайтПродолжительность                        : 1 ч. 48 м.Общий поток                              : 963 Кбит/секНазвание фильма                          : Imperium_2016_HDRip_[torrentsland.com.ua]Режиссёр                                 : networkЖанр                                     : Криминальная драма, триллерПрограмма кодирования                    : VirtualDubModRus 1.5.10.2 (build 2542/release)Формат оригинала/Имя                     : Фильмы 2016Правообладатель                          : networkПримечание                               : 5 ноября 2016 г.
ВидеоИдентификатор : 0Формат : MPEG-4 VisualПрофиль формата : Advanced Simple@L5Параметр BVOP формата : 1Параметр QPel формата : НетПараметр GMC формата : Без точки переходаПараметр матрицы формата : ВыборочнаяИдентификатор кодека : DX50Идентификатор кодека/Подсказка : DivX 5Продолжительность : 1 ч. 48 м.Битрейт : 826 Кбит/секШирина : 688 пикселейВысота : 288 пикселейСоотношение сторон : 2,40:1Частота кадров : 23,976 кадра/секЦветовое пространство : YUVСубдискретизация насыщенности : 4:2:0Битовая глубина : 8 битТип развёртки : ПрогрессивнаяМетод сжатия : С потерямиБит/(Пиксели*Кадры) : 0.174Размер потока : 642 Мбайт (86%)Библиотека кодирования : XviD 73
АудиоИдентификатор : 1Формат : MPEG AudioВерсия формата : Version 1Профиль формата : Layer 3Режим : Joint stereoРасширение режима : MS StereoИдентификатор кодека : 55Идентификатор кодека/Подсказка : MP3Продолжительность : 1 ч. 48 м.Вид битрейта : ПостоянныйБитрейт : 128 Кбит/секКаналы : 2 каналаЧастота : 48,0 КГцМетод сжатия : С потерямиРазмер потока : 99,4 Мбайт (13%)Выравнивание : Соединение по промежуткамПродолжительность промежутка : 42 мс. (1,00 видеокадр)Время предзагрузки промежутка : 504 мс.Библиотека кодирования : LAME3.98.2

Скриншот c названием фильма

Скриншоты

Время раздачи - по возможности.
[Profile]  [PM] 
Display posts:    
Reply to topic

Current time is: 25-Sep 06:06

All times are UTC + 2



You cannot post new topics in this forum
You cannot reply to topics in this forum
You cannot edit your posts in this forum
You cannot delete your posts in this forum
You cannot vote in polls in this forum
You cannot attach files in this forum
You cannot download files in this forum