Собачий мир / Mundo Cão (Маркос Хорхе / Marcos Jorge) [2016, Бразилия, драма, DVDRip] DVO (SNK-TV) + Original + Rus Subs

Reply to topic
 
Author
Message

Satyr ®

Gender: Unknown

Longevity: 11 years

Posts: 15401

Reputation: 55 [+] [-]

Satyr · Post 07-Nov-2016 19:05

[Quote] 

Собачий мир / Mundo Cão- Год выпуска: 2016
Страна: Бразилия
Жанр: драма
Продолжительность: 01:40:30-Перевод: Любительский (двухголосый закадровый) - /SNK-TV/
Субтитры: Русские (Полные) - /SNK-TV/, Английские, Португальские-Режиссёр: Маркос Хорхе / Marcos Jorge
В ролях: Лазаро Рамос, Бабу Сантана, Адриана Эстевес, Мильем Корташ, Thainá Duarte, Vini Carvalho. Паулиньо Серра, Тони Рэйван-Описание: Сан-Паулу 2007, Антонио Сантана работает собаколовом, ловит бродячих животных и доставляет их в зооцентр. В течение 3х дней за животным может прийти хозяин, и, заплатив определенную сумму, забрать его. Если же хозяин не объявляется, животное усыпляют, таков закон. Однажды Сантана вместе с коллегой ловит огромного ротвейлера на территории школы...-
Скачать сэмпл
Релиз подготовлен по заказу: WB-кинотеатр
Перевод и озвучивание: SNK-TV-Качество: DVDRip (Mundo Cao 2016 Nacional DVD-R ISO Makalakato.iso)
Формат: AVI
Видео кодек: Xvid
Аудио кодек: AC3
Видео: Xvid 720x352 29.97fps 1519kbps 0.200 bit/pixel
Аудио Rus: Dolby AC3 48000Hz stereo 192kbps [SNK-TV]
Аудио Eng: Dolby AC3 48000Hz stereo 224kbps [Оригинал]
Субтитры: softsub (SRT)-

Скриншоты

-

-

MediaInfo

General
Complete name : W:\Торка на W\Mundo Cao\Mundo.Cao.2016.DVDRip.SNK-TV.avi
Format : AVI
Format/Info : Audio Video Interleave
File size : 1.37 GiB
Duration : 1h 40mn
Overall bit rate : 1 949 Kbps
Writing application : VirtualDubModRus 1.5.10.2 (build 2542/release)
Writing library : VirtualDubMod build 2542/release
Video
ID : 0
Format : MPEG-4 Visual
Format profile : Advanced Simple@L5
Format settings, BVOP : No
Format settings, QPel : No
Format settings, GMC : No warppoints
Format settings, Matrix : Default (H.263)
Codec ID : XVID
Codec ID/Hint : XviD
Duration : 1h 40mn
Bit rate : 1 520 Kbps
Width : 720 pixels
Height : 352 pixels
Display aspect ratio : 2.045
Frame rate : 29.970 fps
Color space : YUV
Chroma subsampling : 4:2:0
Bit depth : 8 bits
Scan type : Progressive
Compression mode : Lossy
Bits/(Pixel*Frame) : 0.200
Stream size : 1.07 GiB (78%)
Writing library : XviD 67
Audio #1
ID : 1
Format : AC-3
Format/Info : Audio Coding 3
Mode extension : CM (complete main)
Format settings, Endianness : Big
Codec ID : 2000
Duration : 1h 40mn
Bit rate mode : Constant
Bit rate : 192 Kbps
Channel(s) : 2 channels
Channel positions : Front: L R
Sampling rate : 48.0 KHz
Compression mode : Lossy
Stream size : 138 MiB (10%)
Alignment : Split accross interleaves
Interleave, duration : 33 ms (1.00 video frame)
Interleave, preload duration : 500 ms
Audio #2
ID : 2
Format : AC-3
Format/Info : Audio Coding 3
Mode extension : CM (complete main)
Format settings, Endianness : Big
Codec ID : 2000
Duration : 1h 40mn
Bit rate mode : Constant
Bit rate : 224 Kbps
Channel(s) : 2 channels
Channel positions : Front: L R
Sampling rate : 48.0 KHz
Bit depth : 16 bits
Compression mode : Lossy
Stream size : 161 MiB (11%)
Alignment : Split accross interleaves
Interleave, duration : 137 ms (4.11 video frames)
Interleave, preload duration : 548 ms
[Profile]  [PM] 
Display posts:    
Reply to topic

Current time is: 22-Jan 14:00

All times are UTC + 2



You cannot post new topics in this forum
You cannot reply to topics in this forum
You cannot edit your posts in this forum
You cannot delete your posts in this forum
You cannot vote in polls in this forum
You cannot attach files in this forum
You cannot download files in this forum