Дэдпул / Deadpool (Тим Миллер / Tim Miller) [2016, США, Фантастика, боевик, комедия, приключения, WEB-DLRip] [Open Matte / Локализованный видеоряд] Dub

Reply to topic
 
Author
Message

Satyr ®

Gender: Unknown

Longevity: 11 years

Posts: 15401

Reputation: 55 [+] [-]

Satyr · Post 09-Nov-2016 20:00

[Quote] 

Дэдпул / Deadpool
«Стань свидетелем, как он кончит»
- Год выхода: 2016
Выпущено: США, Канада / 20th Century Fox Film Corporation
Жанр: фантастика, боевик, триллер, приключения
Продолжительность: 01:48:08
Перевод: Профессиональный (полное дублирование) BD CEE |Лицензия|
Субтитры: нет-Режиссер:
Тим Миллер / Tim Miller-В ролях:
Райан Рейнольдс, Морена Баккарин, Эд Скрейн, ТиДжей Миллер, Джина Карано, Брианна Хилдебранд, Стефан Капичич, Лесли Уггэмс, Джед Риис, Каран Сони, Майкл Беняер, Стайл Дэйн, Кайл Кэсси, Тэйлор Хиксон, Айзи, Наика Туссэн, Рендал Ридер, Айзек С. Синглтон мл., Джастин Шиппелт, Донна Ямамото-О фильме:
Уэйд Уилсон — наёмник. Будучи побочным продуктом программы вооружённых сил под названием «Оружие X», Уилсон приобрёл невероятную силу, проворство и способность к исцелению. Но страшной ценой: его клеточная структура постоянно меняется, а здравомыслие сомнительно. Всё, чего Уилсон хочет, — это держаться на плаву в социальной выгребной яме. Но течение в ней слишком быстрое.-| IMDB | КиноПоиск | Сэмпл | Рип - Dalemake |-Качество: WEB-DLRip [Deadpool (2016) WEB-DL 1080p [Open Matte] -BLUEBIRD]
Формат: AVI
Видео: 688x384 (1.79:1), 23.976 fps, XviD build 67 ~1537 kbps avg, 0.24 bit/pixel
Аудио: 48 kHz, AC3 Dolby Digital, 3/2 (L,C,R,l,r) + LFE ch, ~384 kbps avg
-

Скриншоты

-

Исходник

Исходник с онлайн кинотеатра
Видео ряд локализован
Open Matte версия фильма, имеет большее наполнение кадра по сравнению с блюрэй.
Blu-ray vs WEB-DL


MediaInfo

Общее
Полное имя                               : D:\Deadpool_2016_WEB-DLRip_[Open_Matte]_by_Dalemake.avi
Формат                                   : AVI
Формат/Информация                        : Audio Video Interleave
Размер файла                             : 1,46 Гбайт
Продолжительность                        : 1 ч. 48 м.
Общий поток                              : 1930 Кбит/сек
Программа кодирования                    : VirtualDubMod 1.5.10.3 | www.virtualdub-fr.org || (build 2550/release)
Библиотека кодирования                   : VirtualDubMod build 2550/release
Видео
Идентификатор                            : 0
Формат                                   : MPEG-4 Visual
Профиль формата                          : Advanced Simple@L5
Параметр BVOP формата                    : 1
Параметр QPel формата                    : Нет
Параметр GMC формата                     : Без точки перехода
Параметр матрицы формата                 : Выборочная
Идентификатор кодека                     : XVID
Идентификатор кодека/Подсказка           : XviD
Продолжительность                        : 1 ч. 48 м.
Битрейт                                  : 1537 Кбит/сек
Ширина                                   : 688 пикселей
Высота                                   : 384 пикселя
Соотношение сторон                       : 16:9
Частота кадров                           : 23,976 кадра/сек
Цветовое пространство                    : YUV
Субдискретизация насыщенности            : 4:2:0
Битовая глубина                          : 8 бит
Тип развёртки                            : Прогрессивная
Метод сжатия                             : С потерями
Бит/(Пиксели*Кадры)                      : 0.243
Размер потока                            : 1,16 Гбайт (80%)
Библиотека кодирования                   : XviD 67
Аудио
Идентификатор                            : 1
Формат                                   : AC-3
Формат/Информация                        : Audio Coding 3
Расширение режима                        : CM (complete main)
Параметр Endianness формата              : Big
Идентификатор кодека                     : 2000
Продолжительность                        : 1 ч. 48 м.
Вид битрейта                             : Постоянный
Битрейт                                  : 384 Кбит/сек
Каналы                                   : 6 каналов
Расположение каналов                     : Front: L C R, Side: L R, LFE
Частота                                  : 48,0 КГц
Битовая глубина                          : 16 бит
Метод сжатия                             : С потерями
Размер потока                            : 297 Мбайт (20%)
Выравнивание                             : Разделение по промежуткам
Продолжительность промежутка             : 42  мс. (1,00 видеокадр)
Время предзагрузки промежутка            : 500  мс.
-
[Profile]  [PM] 
Display posts:    
Reply to topic

Current time is: 28-Jan 14:27

All times are UTC + 2



You cannot post new topics in this forum
You cannot reply to topics in this forum
You cannot edit your posts in this forum
You cannot delete your posts in this forum
You cannot vote in polls in this forum
You cannot attach files in this forum
You cannot download files in this forum