Неоновый демон / The Neon Demon (Николас Виндинг Рефн / Nicolas Winding Refn) [2016, Франция, Дания, США, ужасы, триллер, BDRip-AVC] Dub + Original + Sub (rus, eng)

Reply to topic
 
Author
Message

Satyr ®

Online

Gender: Unknown

Longevity: 11 years

Posts: 15401

Reputation: 55 [+] [-]

Satyr · Post 11-Nov-2016 00:35

[Quote] 

Неоновый демон / The Neon Demon«The wicked die young»- Страна: Франция, Дания, США
Жанр: ужасы, триллер
Год выпуска: 2016
Продолжительность: 01:57:42
Перевод: Профессиональный (дублированный) (iTunes)
Оригинальная аудиодорожка: английский
Субтитры: русские (полные) английские (полные, SDH)
Навигация по главам: есть
Режиссер: Николас Виндинг Рефн / Nicolas Winding Refn
В ролях: Эль Фаннинг (Jesse), Карл Глусман (Dean), Джена Мэлоун (Ruby), Белла Хиткот (Gigi), Эбби Ли (Sarah), Десмонд Хэррингтон (Jack), Кристина Хендрикс (Roberta Hoffmann), Киану Ривз (Hank), Чарльз Бэйкер (Mikey), Джеми Клейтон (Casting Director), Стэйси Дейнджер (Casting Assistant), Ребекка Дайан (Dresser)
Описание: Провинциалка Джесси, мечтающая стать супермоделью, едва окончив школу, отправляется покорять Лос-Анджелес. Через тернии (одна, без денег, чужой город, дешевый мотель), но и через нужные знакомства, фотосессии, вечеринки - к звездам. И вот это сладкое слово «слава» становится былью для юной красавицы. Но за стремительный карьерный взлет придется расплатиться - конкурентки из ненависти и безумной зависти готовы на многое.- -Качество: BDRip-AVC (исходник - BDRemux|The.Neon.Demon.2016.1080p.BluRay.REMUX.AVC.DTS-HD.MA.5.1-FGT)
Формат видео: MKV
Видео: x264, 1150x482 (2.40:1), 23,976 fps, ~1151 kbps, 0.087 bit/pixel
Аудио 1: 48 kHz, AC3 Dolby Digital, 3/2 (L,C,R,l,r) + LFE ch, ~384 kbps [русский]
Аудио 2: 48 kHz, AC3 Dolby Digital, 2.0, (Front: L R) ch, ~ 192 kbps [английский]
Формат субтитров: softsub (SRT)-

MediaInfo | x264 log

Format : Matroska
Format version : Version 4 / Version 2
File size : 1.45 GiB
Duration : 1 h 57 min
Overall bit rate : 1 762 kb/s
Movie name : Неоновый демон / The Neon Demon (2016) :: AFM ::
Encoded date : UTC 2016-11-08 18:59:19
Writing application : mkvmerge v8.3.0 ('Over the Horizon') 32bit
Writing library : libebml v1.3.1 + libmatroska v1.4.2
Video
ID : 1
Format : AVC
Format/Info : Advanced Video Codec
Format profile : High@L4.1
Format settings, CABAC : Yes
Format settings, ReFrames : 10 frames
Codec ID : V_MPEG4/ISO/AVC
Duration : 1 h 57 min
Bit rate : 1 151 kb/s
Width : 1 150 pixels
Height : 482 pixels
Display aspect ratio : 2.40:1
Frame rate mode : Constant
Frame rate : 23.976 (24000/1001) FPS
Color space : YUV
Chroma subsampling : 4:2:0
Bit depth : 8 bits
Scan type : Progressive
Bits/(Pixel*Frame) : 0.087
Stream size : 969 MiB (65%)
Title : BDRip by AFM
Writing library : x264 core 148 r2721+55 e19946b t_mod_Custom [8-bit@all X86_64]
Encoding settings : cabac=1 / ref=10 / deblock=1:-2:-2 / analyse=0x3:0x113 / me=umh / subme=10 / psy=1 / fade_compensate=0.00 / psy_rd=1.00:0.00 / mixed_ref=1 / me_range=32 / chroma_me=1 / trellis=2 / 8x8dct=1 / cqm=0 / deadzone=21,11 / fast_pskip=0 / chroma_qp_offset=-2 / threads=6 / lookahead_threads=1 / sliced_threads=0 / nr=0 / decimate=1 / interlaced=0 / bluray_compat=0 / constrained_intra=0 / fgo=0 / bframes=12 / b_pyramid=2 / b_adapt=2 / b_bias=0 / direct=1 / weightb=1 / open_gop=0 / weightp=2 / keyint=240 / keyint_min=23 / scenecut=40 / intra_refresh=0 / rc_lookahead=40 / rc=crf / mbtree=0 / crf=18.5000 / qcomp=0.65 / qpmin=0:0:0 / qpmax=69:69:69 / qpstep=4 / vbv_maxrate=50000 / vbv_bufsize=62500 / crf_max=0.0 / nal_hrd=none / filler=0 / ip_ratio=1.35 / pb_ratio=1.30 / aq=3:0.85 / aq-sensitivity=10.00 / aq-factor=1.00:1.00:1.00 / aq2=0 / aq3=0
Language : English
Default : Yes
Forced : No
Audio #1
ID : 2
Format : AC-3
Format/Info : Audio Coding 3
Mode extension : CM (complete main)
Format settings, Endianness : Big
Codec ID : A_AC3
Duration : 1 h 57 min
Bit rate mode : Constant
Bit rate : 384 kb/s
Channel(s) : 6 channels
Channel positions : Front: L C R, Side: L R, LFE
Sampling rate : 48.0 kHz
Frame rate : 31.250 FPS (1536 spf)
Compression mode : Lossy
Stream size : 323 MiB (22%)
Title : Dub, AC3 5.1 ~384 kbps
Language : Russian
Default : Yes
Forced : No
Audio #2
ID : 3
Format : AC-3
Format/Info : Audio Coding 3
Mode extension : CM (complete main)
Format settings, Endianness : Big
Codec ID : A_AC3
Duration : 1 h 57 min
Bit rate mode : Constant
Bit rate : 192 kb/s
Channel(s) : 2 channels
Channel positions : Front: L R
Sampling rate : 48.0 kHz
Frame rate : 31.250 FPS (1536 spf)
Compression mode : Lossy
Stream size : 162 MiB (11%)
Title : Original, AC3 2.0 ~192 kbps
Language : English
Default : No
Forced : No
Text #1
ID : 4
Format : UTF-8
Codec ID : S_TEXT/UTF8
Codec ID/Info : UTF-8 Plain Text
Language : Russian
Default : No
Forced : No
Text #2
ID : 5
Format : UTF-8
Codec ID : S_TEXT/UTF8
Codec ID/Info : UTF-8 Plain Text
Language : English
Default : No
Forced : No
Text #3
ID : 6
Format : UTF-8
Codec ID : S_TEXT/UTF8
Codec ID/Info : UTF-8 Plain Text
Title : SDH
Language : English
Default : No
Forced : No
Menu
00:00:00.000 : en:Chapter 01
00:07:27.822 : en:Chapter 02
00:15:43.901 : en:Chapter 03
00:21:05.931 : en:Chapter 04
00:26:36.637 : en:Chapter 05
00:30:33.915 : en:Chapter 06
00:36:39.656 : en:Chapter 07
00:43:15.843 : en:Chapter 08
00:50:39.328 : en:Chapter 09
00:56:44.109 : en:Chapter 10
01:04:59.604 : en:Chapter 11
01:09:24.619 : en:Chapter 12
01:17:38.862 : en:Chapter 13
01:23:37.679 : en:Chapter 14
01:31:53.800 : en:Chapter 15
01:41:10.314 : en:Chapter 16
01:47:28.734 : en:Chapter 17
01:51:56.460 : en:Chapter 18

x264

x264 [info]: frame I:1040 Avg QP:13.83 size: 55256
x264 [info]: frame P:28069 Avg QP:15.13 size: 15910
x264 [info]: frame B:140211 Avg QP:17.40 size: 3863
x264 [info]: consecutive B-frames: 1.1% 0.6% 2.7% 6.6% 9.4% 46.4% 8.1% 4.8% 4.6% 2.1% 3.5% 5.8% 4.3%
x264 [info]: mb I I16..4: 14.4% 68.6% 16.9%
x264 [info]: mb P I16..4: 1.7% 4.5% 0.8% P16..4: 37.2% 24.9% 15.0% 0.0% 0.0% skip:15.9%
x264 [info]: mb B I16..4: 0.2% 0.3% 0.0% B16..8: 30.6% 7.7% 1.6% direct: 2.1% skip:57.5% L0:48.1% L1:45.1% BI: 6.8%
x264 [info]: 8x8 transform intra:63.7% inter:62.9%
x264 [info]: coded y,uvDC,uvAC intra: 65.1% 81.0% 69.2% inter: 9.1% 11.6% 4.3%
x264 [info]: i16 v,h,dc,p: 75% 8% 6% 11%
x264 [info]: i8 v,h,dc,ddl,ddr,vr,hd,vl,hu: 22% 8% 12% 8% 10% 11% 9% 10% 10%
x264 [info]: i4 v,h,dc,ddl,ddr,vr,hd,vl,hu: 24% 8% 6% 9% 12% 12% 10% 9% 10%
x264 [info]: i8c dc,h,v,p: 42% 24% 21% 12%
x264 [info]: Weighted P-Frames: Y:6.5% UV:4.9%
x264 [info]: ref P L0: 44.5% 6.5% 18.2% 7.3% 6.6% 4.9% 4.7% 2.5% 2.5% 2.3% 0.1% 0.0%
x264 [info]: ref B L0: 56.3% 15.6% 9.9% 5.4% 4.3% 3.6% 3.1% 1.3% 0.4%
x264 [info]: ref B L1: 89.2% 10.8%
x264 [info]: kb/s:1184.55

Скриншоты

с названием

[Profile]  [PM] 
Display posts:    
Reply to topic

Current time is: 24-Sep 02:56

All times are UTC + 2



You cannot post new topics in this forum
You cannot reply to topics in this forum
You cannot edit your posts in this forum
You cannot delete your posts in this forum
You cannot vote in polls in this forum
You cannot attach files in this forum
You cannot download files in this forum