Девять жизней / Nine Lives (Бэрри Зонненфельд / Barry Sonnenfeld) [2016, Франция, Китай, Фэнтези, комедия, семейный, BDRip] Dub (iTunes)

Reply to topic
 
Author
Message

Satyr ®

Gender: Unknown

Longevity: 11 years

Posts: 15401

Reputation: 55 [+] [-]

Satyr · Post 12-Nov-2016 21:30

[Quote] 

Девять жизней / Nine Lives

«Kevin Spacey as you've never seen him before»
- Страна: Франция, Китай
Жанр: Фэнтези, комедия, семейный
Год выпуска: 2016
Продолжительность: 01:26:50-Перевод: Профессиональный (дублированный) iTunes
Cубтитры: нет-Режиссер: Бэрри Зонненфельд / Barry Sonnenfeld-В ролях: Кевин Спейси, Дженнифер Гарнер, Робби Амелл, Шерил Хайнс, Марк Консуэлос, Малина Вайсман, Кристофер Уокен, Талита Бейтман, Тедди Сирс, Джей Пэттерсон-Описание: Том Бренд — миллиардер-трудоголик с чудинкой. Он с головой погружен в работу и немного выпал из семейной жизни — даже подарок дочери он покупает в последний момент. Ребекка мечтает о настоящем коте, и как бы Том ни презирал животных, он отправляется в зоомагазин, где выбирает самого роскошного кота по кличке Мистер Пушистые Штаны. В спешке на праздник дочери Том попадает в аварию, а очнувшись, обнаруживает себя в теле этого самого кота. Пока Том-человек отсыпается в больнице, Том-Пушистые Штаны вынужден на собственной шкуре испытать все прелести кошачьей жизни и вернуть любовь семьи, чтобы не остаться навсегда в роли питомца. Благо, жена и дочь принимают кота как родного. Но как заставить их разглядеть в Мистере Пушистые Штаны раскаявшегося отца семейства?
- / -Релиз от: MegaPeer-Качество видео: BDRip | BDRemux HDClub
Формат видео: AVI
Видео: 704x384 (1.85:1), 23.976 fps, XviD build 73, 1951 Kbps, 0.30 bit/pixel
Аудио: 48 kHz, AC3 Dolby Digital, 3/2 (L,C,R,l,r) + LFE ch, 384 Kbps

MediaInfo

General
Complete name : Downloads\Nine.Lives.2016.BDRip
Format : AVI
Format/Info : Audio Video Interleave
File size : 1.42 GiB
Duration : 1h 26mn
Overall bit rate : 2 342 Kbps
Video #0
ID : 0
Format : MPEG-4 Visual
Format profile : Advanced Simple@L5
Format settings, BVOP : 1
Format settings, QPel : No
Format settings, GMC : No warppoints
Format settings, Matrix : Custom
Codec ID : XVID
Codec ID/Hint : XviD
Duration : 1h 26mn
Bit rate : 1 951 Kbps
Width : 704 pixels
Height : 384 pixels
Display aspect ratio : 1.85:1
Frame rate : 23.976 fps
Color space : YUV
Chroma subsampling : 4:2:0
Bit depth : 8 bits
Scan type : Progressive
Compression mode : Lossy
Bits/(Pixel*Frame) : 0.301
Stream size : 1.18 GiB (83%)
Writing library : XviD 73
Audio #1
ID : 1
Format : AC-3
Format/Info : Audio Coding 3
Mode extension : CM (complete main)
Format settings, Endianness : Big
Codec ID : 2000
Duration : 1h 26mn
Bit rate mode : Constant
Bit rate : 384 Kbps
Channel(s) : 6 channels
Channel positions : Front: L C R, Side: L R, LFE
Sampling rate : 48.0 KHz
Bit depth : 16 bits
Compression mode : Lossy
Stream size : 238 MiB (16%)
Alignment : Aligned on interleaves
Interleave, duration : 64 ms (1.54 video frames)
Interleave, preload duration : 192 ms
Title : iTunes

Скриншот c названием фильма

Скриншоты

[Profile]  [PM] 
Display posts:    
Reply to topic

Current time is: 22-Sep 15:13

All times are UTC + 2



You cannot post new topics in this forum
You cannot reply to topics in this forum
You cannot edit your posts in this forum
You cannot delete your posts in this forum
You cannot vote in polls in this forum
You cannot attach files in this forum
You cannot download files in this forum