Парни со стволами / War Dogs (Тодд Филлипс / Todd Phillips) [2016, США, Боевик, триллер, криминал, BDRip] Dub (iTunes) + Sub (rus, eng) + Original Eng

Reply to topic
 
Author
Message

Satyr ®

Gender: Unknown

Longevity: 11 years

Posts: 15401

Reputation: 55 [+] [-]

Satyr · Post 15-Nov-2016 14:45

[Quote] 

Парни со стволами / War Dogs

Страна: США
Жанр: Боевик, триллер, криминал
Год выпуска: 2016
Продолжительность: 01:54:12
Перевод: Профессиональный (дублированный) iTunes
Cубтитры: русские (форс., полные) английские (полные)
Оригинальная аудиодорожка: английский
Режиссер: Тодд Филлипс / Todd Phillips
В ролях: Майлз Теллер, Джона Хилл, Стив Лэнц, Грегг Уэйнер, Эдди Джемисон, Джулиан Сержи, Дэниэл Берсон, Эдсон Жан, Брэдли Купер
Описание: Реальная история о приятелях-планокурах из Майами, умудрившихся выбить в Пентагоне контракт на 300 миллионов долларов на поставку оружия.
Сэмпл: http://multi-up.com/1126767
Качество видео: BDRip WAR_DOGS_REMUX_HDCLUB
Формат видео: AVI
Видео: 720x304 (2.37:1), 23.976 fps, XviD build 73 ~1969 kbps avg, 0.38 bit/pixel
Аудио: 48 kHz, AC3 Dolby Digital, 3/2 (L,C,R,l,r) + LFE ch, ~384 kbps [русский]
Аудио 2: 48 kHz, AC3 Dolby Digital, 3/2 (L,C,R,l,r) + LFE ch, ~384 kbps [английский]
Формат субтитров: softsub (SRT)

MediaInfo

Формат : AVI
Формат/Информация : Audio Video Interleave
Профиль формата : OpenDML
Размер файла : 2,19 Гбайт
Продолжительность : 1 ч. 54 м.
Общий поток : 2744 Кбит/сек
Программа кодирования : VirtualDubMod 1.5.10.3 (build 2550/release)
Библиотека кодирования : VirtualDubMod build 2550/release
Видео
Идентификатор : 0
Формат : MPEG-4 Visual
Профиль формата : Advanced Simple@L5
Параметр BVOP формата : 1
Параметр QPel формата : Нет
Параметр GMC формата : Без точки перехода
Параметр матрицы формата : Выборочная
Идентификатор кодека : DX50
Идентификатор кодека/Подсказка : DivX 5
Продолжительность : 1 ч. 54 м.
Битрейт : 1959 Кбит/сек
Ширина : 720 пикселей
Высота : 304 пикселя
Соотношение сторон : 2,35:1
Частота кадров : 23,976 (23976/1000) кадра/сек
Цветовое пространство : YUV
Субдискретизация насыщенности : 4:2:0
Битовая глубина : 8 бит
Тип развёртки : Прогрессивная
Метод сжатия : С потерями
Бит/(Пиксели*Кадры) : 0.373
Размер потока : 1,56 Гбайт (71%)
Библиотека кодирования : XviD 73
Аудио #1
Идентификатор : 1
Формат : AC-3
Формат/Информация : Audio Coding 3
Расширение режима : CM (complete main)
Параметр Endianness формата : Big
Идентификатор кодека : 2000
Продолжительность : 1 ч. 54 м.
Вид битрейта : Постоянный
Битрейт : 384 Кбит/сек
Каналы : 6 каналов
Расположение каналов : Front: L C R, Side: L R, LFE
Частота : 48,0 КГц
Частота кадров : 31,250 кадров/сек (1536 spf)
Метод сжатия : С потерями
Размер потока : 314 Мбайт (14%)
Выравнивание : Разделение по промежуткам
Продолжительность промежутка : 42 мс. (1,00 видеокадр)
Время предзагрузки промежутка : 500 мс.
Аудио #2
Идентификатор : 2
Формат : AC-3
Формат/Информация : Audio Coding 3
Расширение режима : CM (complete main)
Параметр Endianness формата : Big
Идентификатор кодека : 2000
Продолжительность : 1 ч. 54 м.
Вид битрейта : Постоянный
Битрейт : 384 Кбит/сек
Каналы : 6 каналов
Расположение каналов : Front: L C R, Side: L R, LFE
Частота : 48,0 КГц
Частота кадров : 31,250 кадров/сек (1536 spf)
Метод сжатия : С потерями
Размер потока : 314 Мбайт (14%)
Выравнивание : Разделение по промежуткам
Продолжительность промежутка : 42 мс. (1,00 видеокадр)
Время предзагрузки промежутка : 500 мс.

Скриншоты

http://screenshotcomparison.com/comparison/190455/picture:2 http://torrentsland.com.ua/forum/viewtopic.php?t=5310145
[Profile]  [PM] 
Display posts:    
Reply to topic

Current time is: 18-Sep 16:03

All times are UTC + 2



You cannot post new topics in this forum
You cannot reply to topics in this forum
You cannot edit your posts in this forum
You cannot delete your posts in this forum
You cannot vote in polls in this forum
You cannot attach files in this forum
You cannot download files in this forum