Парни со стволами / War Dogs (Тодд Филлипс / Todd Phillips) [2016, США, драма, комедия, криминал, BDRip-AVC] Dub + Sub (rus)

Reply to topic
 
Author
Message

Satyr ®

Gender: Unknown

Longevity: 15 years

Posts: 21940

Reputation: 56 [+] [-]

Satyr · Post 15-Nov-2016 14:45

[Quote] 

Парни со стволами / War Dogs«An American dream»- Страна: США
Жанр: драма, комедия, криминал, военный
Год выпуска: 2016
Продолжительность: 01:54:12
Перевод: Профессиональный (дублированный) (iTunes)
Оригинальная аудиодорожка: нет
Субтитры: русские (форс.)
Навигация по главам: есть
Режиссер: Тодд Филлипс / Todd Phillips
В ролях: Майлз Теллер (David Packouz), Джона Хилл (Efraim Diveroli), Ана де Армас (Iz), Кевин Поллак (Ralph Slutzky), Брэдли Купер (Henry Girard), Джейби Бланк (Bashkim), Шон Тоуб (Marlboro), Патрик Ст. Эсприт (Captain Philip Santos), Андрей Финти (Yili Pinari), Эдди Джемисон (Hilldale Home Manager), Стив Лэнц (Security Guard), Грегг Уэйнер (Massage Client)
Описание: Реальная история о приятелях-планокурах из Майами, умудрившихся выбить в Пентагоне контракт на 300 миллионов долларов на поставку оружия.- -Качество: BDRip-AVC (исходник - BDRemux|War.Dogs.2016.1080p.BluRay.REMUX.AVC.DTS-HD.MA.5.1-FGT)
Формат видео: MKV
Видео: x264, 1032x430 (2.40:1) 23,976 fps, ~1378 kbps, 0.130 bit/pixel
Аудио: 48 kHz, AC3 Dolby Digital, 5.1, (Front: L C R, Side: L R, LFE) ch, ~ 384 kbps
Формат субтитров: softsub (SRT)-

MediaInfo | x264 log

Format : Matroska
Format version : Version 4 / Version 2
File size : 1.43 GiB
Duration : 1 h 54 min
Overall bit rate : 1 798 kb/s
Movie name : Парни со стволами / War Dogs (2016) :: AFM ::
Encoded date : UTC 2016-11-11 22:18:58
Writing application : mkvmerge v8.3.0 ('Over the Horizon') 32bit
Writing library : libebml v1.3.1 + libmatroska v1.4.2
Video
ID : 1
Format : AVC
Format/Info : Advanced Video Codec
Format profile : High@L4.1
Format settings, CABAC : Yes
Format settings, ReFrames : 11 frames
Codec ID : V_MPEG4/ISO/AVC
Duration : 1 h 54 min
Bit rate : 1 378 kb/s
Width : 1 032 pixels
Height : 430 pixels
Display aspect ratio : 2.40:1
Frame rate mode : Constant
Frame rate : 23.976 (24000/1001) FPS
Color space : YUV
Chroma subsampling : 4:2:0
Bit depth : 8 bits
Scan type : Progressive
Bits/(Pixel*Frame) : 0.130
Stream size : 1.10 GiB (77%)
Title : BDRip by AFM
Writing library : x264 core 148 r2721+55 e19946b t_mod_Custom [8-bit@all X86_64]
Encoding settings : cabac=1 / ref=11 / deblock=1:-2:-2 / analyse=0x3:0x133 / me=umh / subme=10 / psy=1 / fade_compensate=0.00 / psy_rd=1.00:0.00 / mixed_ref=1 / me_range=32 / chroma_me=1 / trellis=2 / 8x8dct=1 / cqm=0 / deadzone=21,11 / fast_pskip=0 / chroma_qp_offset=-2 / threads=6 / lookahead_threads=1 / sliced_threads=0 / nr=0 / decimate=1 / interlaced=0 / bluray_compat=0 / constrained_intra=0 / fgo=0 / bframes=12 / b_pyramid=2 / b_adapt=2 / b_bias=0 / direct=1 / weightb=1 / open_gop=0 / weightp=2 / keyint=240 / keyint_min=23 / scenecut=40 / intra_refresh=0 / rc_lookahead=40 / rc=crf / mbtree=0 / crf=19.0000 / qcomp=0.65 / qpmin=0:0:0 / qpmax=69:69:69 / qpstep=4 / vbv_maxrate=50000 / vbv_bufsize=62500 / crf_max=0.0 / nal_hrd=none / filler=0 / ip_ratio=1.35 / pb_ratio=1.30 / aq=3:0.85 / aq-sensitivity=10.00 / aq-factor=1.00:1.00:1.00 / aq2=0 / aq3=0
Language : English
Default : Yes
Forced : No
Audio
ID : 2
Format : AC-3
Format/Info : Audio Coding 3
Mode extension : CM (complete main)
Format settings, Endianness : Big
Codec ID : A_AC3
Duration : 1 h 54 min
Bit rate mode : Constant
Bit rate : 384 kb/s
Channel(s) : 6 channels
Channel positions : Front: L C R, Side: L R, LFE
Sampling rate : 48.0 kHz
Frame rate : 31.250 FPS (1536 spf)
Compression mode : Lossy
Stream size : 314 MiB (21%)
Title : Dub, AC3 5.1 ~384 kbps
Language : Russian
Default : Yes
Forced : No
Text
ID : 3
Format : UTF-8
Codec ID : S_TEXT/UTF8
Codec ID/Info : UTF-8 Plain Text
Title : forced
Language : Russian
Default : Yes
Forced : No
Menu
00:00:00.000 : en:Chapter 01
00:10:13.487 : en:Chapter 02
00:19:00.848 : en:Chapter 03
00:30:21.110 : en:Chapter 04
00:40:02.149 : en:Chapter 05
00:50:56.178 : en:Chapter 06
00:59:34.237 : en:Chapter 07
01:10:59.213 : en:Chapter 08
01:20:08.720 : en:Chapter 09
01:32:06.020 : en:Chapter 10
01:39:36.011 : en:Chapter 11
01:48:19.117 : en:Chapter 12

x264

x264 [info]: frame I:1441 Avg QP:16.88 size: 49666
x264 [info]: frame P:32539 Avg QP:18.34 size: 17423
x264 [info]: frame B:130324 Avg QP:20.53 size: 4384
x264 [info]: consecutive B-frames: 1.8% 1.6% 4.9% 20.3% 17.7% 31.4% 6.7% 6.9% 2.0% 1.3% 0.8% 3.6% 1.1%
x264 [info]: mb I I16..4: 10.0% 68.8% 21.2%
x264 [info]: mb P I16..4: 1.2% 7.7% 1.5% P16..4: 40.6% 22.9% 16.8% 0.7% 0.2% skip: 8.4%
x264 [info]: mb B I16..4: 0.1% 0.4% 0.1% B16..8: 39.8% 8.9% 2.4% direct: 3.3% skip:45.1% L0:43.1% L1:47.2% BI: 9.7%
x264 [info]: 8x8 transform intra:72.5% inter:64.2%
x264 [info]: coded y,uvDC,uvAC intra: 81.3% 83.0% 62.3% inter: 15.6% 13.0% 2.9%
x264 [info]: i16 v,h,dc,p: 44% 12% 6% 38%
x264 [info]: i8 v,h,dc,ddl,ddr,vr,hd,vl,hu: 11% 11% 7% 9% 13% 13% 13% 11% 12%
x264 [info]: i4 v,h,dc,ddl,ddr,vr,hd,vl,hu: 11% 10% 3% 10% 15% 14% 13% 11% 12%
x264 [info]: i8c dc,h,v,p: 37% 24% 20% 18%
x264 [info]: Weighted P-Frames: Y:3.0% UV:2.1%
x264 [info]: ref P L0: 48.9% 11.2% 15.8% 6.2% 4.9% 3.6% 3.1% 1.7% 1.6% 1.4% 1.4% 0.1% 0.0%
x264 [info]: ref B L0: 75.1% 10.6% 5.5% 2.7% 1.9% 1.5% 1.2% 0.7% 0.5% 0.2%
x264 [info]: ref B L1: 93.7% 6.3%
x264 [info]: kb/s:1412.29

Скриншоты

с названием

[Profile]  [PM] 
Display posts:    
Reply to topic

Current time is: 19-Jun 13:43

All times are UTC + 2



You cannot post new topics in this forum
You cannot reply to topics in this forum
You cannot edit your posts in this forum
You cannot delete your posts in this forum
You cannot vote in polls in this forum
You cannot attach files in this forum
You cannot download files in this forum