Любой ценой / Hell or High Water (Дэвид Маккензи / David Mackenzie) [2016, США, драма, криминал, BDRip-AVC] Dub + Original + Sub (eng)

Reply to topic
 
Author
Message

Satyr ®

Online

Gender: Unknown

Longevity: 11 years

Posts: 15401

Reputation: 55 [+] [-]

Satyr · Post 15-Nov-2016 18:50

[Quote] 

Любой ценой / Hell or High Water«Справедливость - это не преступление»- Страна: США
Жанр: драма, криминал
Год выпуска: 2016
Продолжительность: 01:42:15
Перевод: Профессиональный (дублированный) (iTunes)
Оригинальная аудиодорожка: английский
Субтитры: английские
Навигация по главам: есть
Режиссер: Дэвид Маккензи / David Mackenzie
В ролях: Джефф Бриджес (Marcus Hamilton), Крис Пайн (Toby Howard), Бен Фостер (Tanner Howard), Джил Бирмингем (Alberto Parker), Дейл Дикки (Elsie), Уильям Стерчи (Mr. Clauson), Бак Тейлор (Old Man), Кристин Берг (Olney Teller), Кит Мэривезер (Rancher), Жакмо Буззел (Archer City Deputy), Кэти Миксон (Jenny Ann), Эмбер Мидфандер (Vernon Teller)
Описание: Два брата-лузера решают наведаться в хранилища пары-тройки банков, которые много лет безбожно обкрадывают своих должников. Расследование дерзких ограблений с грубым почерком увенчает карьеру шерифа Маркуса. Но куда выведет это нехитрое дело?- -Качество: BDRip-AVC (исходник - BDRemux|HELL_OH_BD_RMX-BLUEBIRD)
Формат видео: MKV
Видео: x264, 1152x480 (2.40:1) 23.976 fps, ~2272 kbps, 0.171 bit/pixel
Аудио 1: 48 kHz, AC3 Dolby Digital, 3/2 (L,C,R,l,r) + LFE ch, ~384 kbps [русский]
Аудио 2: 48 kHz, AC3 Dolby Digital, 3/2 (L,C,R,l,r) + LFE ch, ~384 kbps [английский]
Формат субтитров: softsub (SRT)-

MediaInfo | x264 log

Format : Matroska
Format version : Version 4 / Version 2
File size : 2.22 GiB
Duration : 1h 42 min
Overall bit rate : 3 101 kb/s
Movie name : Любой ценой / Hell or High Water (2016) :: AFM ::
Encoded date : UTC 2016-11-13 01:44:34
Writing application : mkvmerge v8.3.0 ('Over the Horizon') 32bit
Writing library : libebml v1.3.1 + libmatroska v1.4.2
Video
ID : 1
Format : AVC
Format/Info : Advanced Video Codec
Format profile : High@L4.1
Format settings, CABAC : Yes
Format settings, ReFrames : 11 frames
Codec ID : V_MPEG4/ISO/AVC
Duration : 1h 42 min
Bit rate : 2 272 kb/s
Width : 1 152 pixels
Height : 480 pixels
Display aspect ratio : 2.40:1
Frame rate mode : Constant
Frame rate : 23.976 (24000/1001) FPS
Color space : YUV
Chroma subsampling : 4:2:0
Bit depth : 8 bits
Scan type : Progressive
Bits/(Pixel*Frame) : 0.171
Stream size : 1.62 GiB (73%)
Title : BDRip by AFM
Writing library : x264 core 148 r2721+55 e19946b t_mod_Custom [8-bit@all X86_64]
Encoding settings : cabac=1 / ref=11 / deblock=1:-3:-3 / analyse=0x3:0x113 / me=umh / subme=10 / psy=1 / fade_compensate=0.00 / psy_rd=1.00:0.00 / mixed_ref=1 / me_range=32 / chroma_me=1 / trellis=2 / 8x8dct=1 / cqm=0 / deadzone=21,11 / fast_pskip=0 / chroma_qp_offset=-2 / threads=6 / lookahead_threads=1 / sliced_threads=0 / nr=0 / decimate=1 / interlaced=0 / bluray_compat=0 / constrained_intra=0 / fgo=0 / bframes=14 / b_pyramid=2 / b_adapt=2 / b_bias=0 / direct=1 / weightb=1 / open_gop=0 / weightp=2 / keyint=240 / keyint_min=23 / scenecut=40 / intra_refresh=0 / rc_lookahead=40 / rc=crf / mbtree=0 / crf=18.8000 / qcomp=0.65 / qpmin=0:0:0 / qpmax=69:69:69 / qpstep=4 / vbv_maxrate=50000 / vbv_bufsize=62500 / crf_max=0.0 / nal_hrd=none / filler=0 / ip_ratio=1.35 / pb_ratio=1.30 / aq=3:0.80 / aq-sensitivity=10.00 / aq-factor=1.00:1.00:1.00 / aq2=0 / aq3=0
Language : English
Default : Yes
Forced : No
Audio #1
ID : 2
Format : AC-3
Format/Info : Audio Coding 3
Mode extension : CM (complete main)
Format settings, Endianness : Big
Codec ID : A_AC3
Duration : 1h 42 min
Bit rate mode : Constant
Bit rate : 384 kb/s
Channel(s) : 6 channels
Channel positions : Front: L C R, Side: L R, LFE
Sampling rate : 48.0 kHz
Frame rate : 31.250 FPS (1536 spf)
Compression mode : Lossy
Stream size : 281 MiB (12%)
Title : Dub, AC3 5.1 ~384 kbps
Language : Russian
Default : Yes
Forced : No
Audio #2
ID : 3
Format : AC-3
Format/Info : Audio Coding 3
Mode extension : CM (complete main)
Format settings, Endianness : Big
Codec ID : A_AC3
Duration : 1h 42 min
Bit rate mode : Constant
Bit rate : 384 kb/s
Channel(s) : 6 channels
Channel positions : Front: L C R, Side: L R, LFE
Sampling rate : 48.0 kHz
Frame rate : 31.250 FPS (1536 spf)
Compression mode : Lossy
Stream size : 281 MiB (12%)
Title : Original, AC3 5.1 ~384 kbps
Language : English
Default : No
Forced : No
Text
ID : 4
Format : UTF-8
Codec ID : S_TEXT/UTF8
Codec ID/Info : UTF-8 Plain Text
Language : English
Default : No
Forced : No
Menu
00:00:00.000 : en:Chapter 1
00:09:37.242 : en:Chapter 2
00:13:50.453 : en:Chapter 3
00:22:14.583 : en:Chapter 4
00:28:40.384 : en:Chapter 5
00:31:54.328 : en:Chapter 6
00:40:49.612 : en:Chapter 7
00:46:49.931 : en:Chapter 8
00:55:45.090 : en:Chapter 9
01:02:06.472 : en:Chapter 10
01:09:52.896 : en:Chapter 11
01:14:04.648 : en:Chapter 12
01:20:56.225 : en:Chapter 13
01:29:09.135 : en:Chapter 14
01:35:03.863 : en:Chapter 15
01:38:28.277 : en:Chapter 16

x264

x264 [info]: frame I:917 Avg QP:18.25 size: 73843
x264 [info]: frame P:28726 Avg QP:19.56 size: 27800
x264 [info]: frame B:117459 Avg QP:21.74 size: 7847
x264 [info]: consecutive B-frames: 1.1% 1.3% 4.5% 17.2% 16.8% 46.0% 5.9% 1.8% 2.5% 0.7% 0.6% 0.7% 0.5% 0.1% 0.3%
x264 [info]: mb I I16..4: 4.3% 77.0% 18.7%
x264 [info]: mb P I16..4: 0.9% 8.7% 1.3% P16..4: 39.3% 29.1% 16.5% 0.0% 0.0% skip: 4.2%
x264 [info]: mb B I16..4: 0.1% 0.5% 0.1% B16..8: 39.5% 10.9% 3.4% direct: 4.9% skip:40.6% L0:43.8% L1:43.9% BI:12.3%
x264 [info]: 8x8 transform intra:78.2% inter:61.3%
x264 [info]: coded y,uvDC,uvAC intra: 83.3% 78.3% 52.9% inter: 23.4% 17.0% 2.7%
x264 [info]: i16 v,h,dc,p: 35% 31% 6% 29%
x264 [info]: i8 v,h,dc,ddl,ddr,vr,hd,vl,hu: 10% 12% 9% 9% 13% 12% 13% 10% 12%
x264 [info]: i4 v,h,dc,ddl,ddr,vr,hd,vl,hu: 10% 12% 4% 8% 15% 14% 14% 10% 12%
x264 [info]: i8c dc,h,v,p: 37% 32% 18% 14%
x264 [info]: Weighted P-Frames: Y:2.1% UV:0.9%
x264 [info]: ref P L0: 44.4% 12.9% 16.8% 6.2% 5.4% 3.7% 3.6% 1.9% 1.9% 1.5% 1.7% 0.0% 0.0%
x264 [info]: ref B L0: 71.2% 11.7% 6.2% 3.2% 2.3% 1.9% 1.6% 1.0% 0.6% 0.3%
x264 [info]: ref B L1: 93.4% 6.6%
x264 [info]: kb/s:2331.34

Скриншоты

с названием

[Profile]  [PM] 
Display posts:    
Reply to topic

Current time is: 20-Sep 23:21

All times are UTC + 2



You cannot post new topics in this forum
You cannot reply to topics in this forum
You cannot edit your posts in this forum
You cannot delete your posts in this forum
You cannot vote in polls in this forum
You cannot attach files in this forum
You cannot download files in this forum