Отряд самоубийц / Suicide Squad (Дэвид Эйр / David Ayer) [2016, США, Фантастика, фэнтези, боевик, приключения, WEB-DLRip] [Театральная версия / Theatrical cut] Dub (iTunes) + Sub

Reply to topic
 
Author
Message

Satyr ®

Gender: Unknown

Longevity: 11 years

Posts: 15401

Reputation: 55 [+] [-]

Satyr · Post 16-Nov-2016 15:20

[Quote] 

Отряд самоубийц / Suicide Squad
Страна: США
Жанр: Фантастика, Боевик, Комедия, Криминал
Год выпуска: 2016
Продолжительность: 02:02:47
Перевод: Профессиональный (полное дублирование) iTunes
Cубтитры: Русские форсированные (отдельно)
Оригинальная аудиодорожка: нет
Режиссер: Дэвид Эйр / David Ayer
В ролях: Марго Робби (Harley Quinn), Уилл Смит (Deadshot), Джаред Лето (The Joker), Джай Кортни (Captain Boomerang), Кара Делевинь (June Moone / Enchantress), Джей Эрнандес (Diablo), Юэль Киннаман (Rick Flag), Виола Дэвис (Amanda Waller), Адевале Акинойе-Агбаже (Killer Croc), Скотт Иствуд (Lieutenant GQ Edwards), Дэвид Харбор (Dexter Tolliver), Коммон (Monster T), Эзра Миллер (The Flash)
Описание: Правительство решает дать команде суперзлодеев шанс на искупление. Подвох в том, что их отправляют на миссию, где они, вероятнее всего, погибнут.
Сэмпл
Качество видео: WEB-DLRip
Формат видео: AVI
Видео: 656x272 (2.41:1), 23.976 fps, XviD build 73 ~715 kbps avg, 0.17 bit/pixel
Аудио: 48 kHz, MPEG Layer 3, 2 ch, ~128.00 kbps avg

MediaInfo

Общее
Полное имя : D:\Suicide.Squad.2016.WEB-DLRip.745MB.MegaPeer\Suicide.Squad.2016.WEB-DLRip.745MB.MegaPeer.avi
Формат : AVI
Формат/Информация : Audio Video Interleave
Размер файла : 745 Мбайт
Продолжительность : 2 ч. 2 м.
Общий поток : 848 Кбит/сек
Видео
Идентификатор : 0
Формат : MPEG-4 Visual
Профиль формата : Advanced Simple@L5
Параметр BVOP формата : 1
Параметр QPel формата : Нет
Параметр GMC формата : Без точки перехода
Параметр матрицы формата : Выборочная
Идентификатор кодека : XVID
Идентификатор кодека/Подсказка : XviD
Продолжительность : 2 ч. 2 м.
Битрейт : 715 Кбит/сек
Ширина : 656 пикселей
Высота : 272 пикселя
Соотношение сторон : 2,40:1
Частота кадров : 23,976 (24000/1001) кадра/сек
Цветовое пространство : YUV
Субдискретизация насыщенности : 4:2:0
Битовая глубина : 8 бит
Тип развёртки : Прогрессивная
Метод сжатия : С потерями
Бит/(Пиксели*Кадры) : 0.167
Размер потока : 628 Мбайт (84%)
Библиотека кодирования : XviD 73
Аудио
Идентификатор : 1
Формат : MPEG Audio
Версия формата : Version 1
Профиль формата : Layer 3
Режим : Joint stereo
Расширение режима : MS Stereo
Идентификатор кодека : 55
Идентификатор кодека/Подсказка : MP3
Продолжительность : 2 ч. 2 м.
Вид битрейта : Постоянный
Битрейт : 128 Кбит/сек
Каналы : 2 канала
Частота : 48,0 КГц
Метод сжатия : С потерями
Размер потока : 112 Мбайт (15%)
Выравнивание : Соединение по промежуткам
Продолжительность промежутка : 167 мс. (4,00 видеокадра)
Время предзагрузки промежутка : 216 мс.
Заголовок : iTunes
Библиотека кодирования : LAME3.99r
Настройки программы : -m j -V 4 -q 2 -lowpass 17 -b 128

Скриншоты

[Profile]  [PM] 
Display posts:    
Reply to topic

Current time is: 24-Jan 08:06

All times are UTC + 2



You cannot post new topics in this forum
You cannot reply to topics in this forum
You cannot edit your posts in this forum
You cannot delete your posts in this forum
You cannot vote in polls in this forum
You cannot attach files in this forum
You cannot download files in this forum