Алкоголик / Alcoholist (Лукас Паветто / Lucas Pavetto) [2016, США, триллер, WEB-DLRip] VO (Хихикающий доктор)

Reply to topic
 
Author
Message

Satyr ®

Gender: Unknown

Longevity: 11 years

Posts: 15401

Reputation: 55 [+] [-]

Satyr · Post 16-Nov-2016 15:20

[Quote] 

Алкоголик / Alcoholist
Страна: США
Жанр: триллер
Год выпуска: 2016
Продолжительность: 01:47:12
Перевод: Одноголосый закадровый [Хихикающий доктор]
Cубтитры: нет
Режиссер: Лукас Паветто / Lucas Pavetto
В ролях: Габриэлла Райт, Билл Моусли, Ллойд Кауфман, Джон Робинсон, Тэмми Джин, Брэт Робертс, Роберт Бозек, Шерри Хэррингтон, Tania Bambaci, Kellen Pembleton
Описание: Алкоголик проводит все свое время шпионя за своим соседом, ожидая подходящего момента, чтобы его убить.
Сэмпл: http://sendfile.su/1282764
Качество видео: WEB-DLRip
Формат видео: AVI
Видео: XviD, 1735 kb/s, 720x304, 24.000 fps
Аудио: AC3, 192 kb/s (2 ch), 48.0 KHz

MediaInfo

I:\Alcoholist\Alcoholist.2016.L1.WEB-DLRip.avi
General
Complete name : I:\Alcoholist\Alcoholist.2016.L1.WEB-DLRip.avi
Format : AVI
Format/Info : Audio Video Interleave
File size : 1.45 GiB
Duration : 1h 47mn
Overall bit rate : 1 936 Kbps
Writing application : VirtualDubMod 1.5.10.3 | www.virtualdub-fr.org || (build 2550/release)
Writing library : VirtualDubMod build 2550/release
Video #0
ID : 0
Format : MPEG-4 Visual
Format profile : Advanced Simple@L5
Format settings, BVOP : 1
Format settings, QPel : No
Format settings, GMC : No warppoints
Format settings, Matrix : Custom
Codec ID : XVID
Codec ID/Hint : XviD
Duration : 1h 47mn
Bit rate : 1 735 Kbps
Width : 720 pixels
Height : 304 pixels
Display aspect ratio : 2.35:1
Frame rate : 24.000 fps
Color space : YUV
Chroma subsampling : 4:2:0
Bit depth : 8 bits
Scan type : Progressive
Compression mode : Lossy
Bits/(Pixel*Frame) : 0.330
Stream size : 1.30 GiB (90%)
Writing library : XviD 73
Audio #1
ID : 1
Format : AC-3
Format/Info : Audio Coding 3
Mode extension : CM (complete main)
Format settings, Endianness : Big
Codec ID : 2000
Duration : 1h 47mn
Bit rate mode : Constant
Bit rate : 192 Kbps
Channel count : 2 channels
Channel positions : Front: L R
Sampling rate : 48.0 KHz
Bit depth : 16 bits
Compression mode : Lossy
Stream size : 147 MiB (10%)
Alignment : Split accross interleaves
Interleave, duration : 42 ms (1.00 video frame)
Interleave, preload duration : 500 ms

Скриншот c названием фильма

Скриншоты

[Profile]  [PM] 
Display posts:    
Reply to topic

Current time is: 22-Jan 13:46

All times are UTC + 2



You cannot post new topics in this forum
You cannot reply to topics in this forum
You cannot edit your posts in this forum
You cannot delete your posts in this forum
You cannot vote in polls in this forum
You cannot attach files in this forum
You cannot download files in this forum