Отряд самоубийц / Suicide Squad (Дэвид Эйр / David Ayer) [2016, США, фантастика, фэнтези, боевик, WEB-DLRip-AVC] [Театральная версия / Theatrical cut] Dub (iTunes)+ Original + Sub (rus, eng)

Reply to topic
 
Author
Message

Satyr ®

Gender: Unknown

Longevity: 11 years

Posts: 15401

Reputation: 55 [+] [-]

Satyr · Post 16-Nov-2016 19:25

[Quote] 

Отряд самоубийц / Suicide Squad«Justice has a bad side»- Страна: США
Жанр: фантастика, фэнтези, боевик, приключения
Год выпуска: 2016
Продолжительность: 02:02:50
Перевод: Профессиональный (дублированный) (iTunes)
Оригинальная аудиодорожка: английский
Субтитры: русские (форс., полные) английские (полные)
Навигация по главам: есть
Режиссер: Дэвид Эйр / David Ayer
В ролях: Марго Робби (Harley Quinn), Уилл Смит (Deadshot), Джаред Лето (The Joker), Джай Кортни (George Harkness / Captain Boomerang), Кара Делевинь (June Moone / Enchantress), Джей Эрнандес (Diablo), Юэль Киннаман (Rick Flag), Виола Дэвис (Amanda Waller), Адевале Акинойе-Агбаже (Killer Croc), Скотт Иствуд (Lieutenant GQ Edwards), Джейм Фицсаймонс (Sergeant Ames Bravo 14), Айк Баринхолц (Griggs)
Описание: Правительство решает дать команде суперзлодеев шанс на искупление. Подвох в том, что их отправляют на миссию, где они, вероятнее всего, погибнут.- -Качество: WEB-DLRip-AVC (исходник - Suicide.Squad.2016.1080p.WEB-DL.DD5.1.H264-FGT)
Формат видео: MKV
Видео: x264, 1080x450 (2.40:1), 23,976 fps, ~1585 kbps, 0.136 bit/pixel
Аудио 1: 48 kHz, AC3 Dolby Digital, 3/2 (L,C,R,l,r) + LFE ch, ~384 kbps [русский]
Аудио 2: 48 kHz, AC3 Dolby Digital, 3/2 (L,C,R,l,r) + LFE ch, ~384 kbps [английский]
Формат субтитров: softsub (SRT)-

MediaInfo | x264 log

Format : Matroska
Format version : Version 4 / Version 2
File size : 2.06 GiB
Duration : 2h 2 min
Overall bit rate : 2 400 kb/s
Movie name : Отряд самоубийц / Suicide Squad (2016) :: AFM ::
Encoded date : UTC 2016-11-16 12:39:27
Writing application : mkvmerge v8.3.0 ('Over the Horizon') 32bit
Writing library : libebml v1.3.1 + libmatroska v1.4.2
Video
ID : 1
Format : AVC
Format/Info : Advanced Video Codec
Format profile : High@L4.1
Format settings, CABAC : Yes
Format settings, ReFrames : 11 frames
Codec ID : V_MPEG4/ISO/AVC
Duration : 2h 2 min
Bit rate : 1 585 kb/s
Width : 1 080 pixels
Height : 450 pixels
Display aspect ratio : 2.40:1
Frame rate mode : Constant
Frame rate : 23.976 (24000/1001) FPS
Color space : YUV
Chroma subsampling : 4:2:0
Bit depth : 8 bits
Scan type : Progressive
Bits/(Pixel*Frame) : 0.136
Stream size : 1.36 GiB (66%)
Title : WEB-DLRip by AFM
Writing library : x264 core 148 r2721+55 e19946b t_mod_Custom [8-bit@all X86_64]
Encoding settings : cabac=1 / ref=11 / deblock=1:-2:-2 / analyse=0x3:0x113 / me=umh / subme=10 / psy=1 / fade_compensate=0.00 / psy_rd=1.00:0.00 / mixed_ref=1 / me_range=32 / chroma_me=1 / trellis=2 / 8x8dct=1 / cqm=0 / deadzone=21,11 / fast_pskip=0 / chroma_qp_offset=-2 / threads=6 / lookahead_threads=1 / sliced_threads=0 / nr=0 / decimate=1 / interlaced=0 / bluray_compat=0 / constrained_intra=0 / fgo=0 / bframes=11 / b_pyramid=2 / b_adapt=2 / b_bias=0 / direct=1 / weightb=1 / open_gop=0 / weightp=2 / keyint=240 / keyint_min=23 / scenecut=40 / intra_refresh=0 / rc_lookahead=40 / rc=crf / mbtree=0 / crf=19.0555 / qcomp=0.65 / qpmin=0:0:0 / qpmax=69:69:69 / qpstep=4 / vbv_maxrate=50000 / vbv_bufsize=62500 / crf_max=0.0 / nal_hrd=none / filler=0 / ip_ratio=1.35 / pb_ratio=1.30 / aq=3:0.80 / aq-sensitivity=10.00 / aq-factor=1.00:1.00:1.00 / aq2=0 / aq3=0 / zones=166725,176709,q=33
Language : English
Default : Yes
Forced : No
Audio #1
ID : 2
Format : AC-3
Format/Info : Audio Coding 3
Mode extension : CM (complete main)
Format settings, Endianness : Big
Codec ID : A_AC3
Duration : 2h 2 min
Bit rate mode : Constant
Bit rate : 384 kb/s
Channel(s) : 6 channels
Channel positions : Front: L C R, Side: L R, LFE
Sampling rate : 48.0 kHz
Frame rate : 31.250 FPS (1536 spf)
Compression mode : Lossy
Stream size : 337 MiB (16%)
Title : Dub, AC3 5.1 ~384 kbps
Language : Russian
Default : Yes
Forced : No
Audio #2
ID : 3
Format : AC-3
Format/Info : Audio Coding 3
Mode extension : CM (complete main)
Format settings, Endianness : Big
Codec ID : A_AC3
Duration : 2h 2 min
Bit rate mode : Constant
Bit rate : 384 kb/s
Channel(s) : 6 channels
Channel positions : Front: L C R, Side: L R, LFE
Sampling rate : 48.0 kHz
Frame rate : 31.250 FPS (1536 spf)
Compression mode : Lossy
Stream size : 337 MiB (16%)
Title : Original, AC3 5.1 ~384 kbps
Language : English
Default : No
Forced : No
Text #1
ID : 4
Format : UTF-8
Codec ID : S_TEXT/UTF8
Codec ID/Info : UTF-8 Plain Text
Title : forced
Language : Russian
Default : Yes
Forced : No
Text #2
ID : 5
Format : UTF-8
Codec ID : S_TEXT/UTF8
Codec ID/Info : UTF-8 Plain Text
Language : Russian
Default : No
Forced : No
Text #3
ID : 6
Format : UTF-8
Codec ID : S_TEXT/UTF8
Codec ID/Info : UTF-8 Plain Text
Language : English
Default : No
Forced : No
Menu
00:00:00.000 : en:1
00:09:07.000 : en:2
00:19:03.000 : en:3
00:29:27.000 : en:4
00:39:17.000 : en:5
00:50:21.000 : en:6
01:00:10.000 : en:7
01:11:46.000 : en:8
01:22:46.000 : en:9
01:32:01.000 : en:10
01:39:21.000 : en:11
01:52:27.000 : en:12

x264

x264 [info]: frame I:1700 Avg QP:16.13 size: 37476
x264 [info]: frame P:44369 Avg QP:17.97 size: 16184
x264 [info]: frame B:130640 Avg QP:21.18 size: 5512
x264 [info]: consecutive B-frames: 2.5% 2.9% 6.4% 61.5% 10.0% 13.5% 1.2% 0.7% 0.1% 1.1% 0.1% 0.1%
x264 [info]: mb I I16..4: 7.2% 73.9% 18.9%
x264 [info]: mb P I16..4: 1.6% 12.6% 2.0% P16..4: 39.6% 27.1% 11.6% 0.0% 0.0% skip: 5.5%
x264 [info]: mb B I16..4: 0.2% 1.4% 0.3% B16..8: 40.5% 11.3% 2.2% direct: 4.6% skip:39.6% L0:43.5% L1:47.1% BI: 9.4%
x264 [info]: 8x8 transform intra:76.7% inter:70.1%
x264 [info]: coded y,uvDC,uvAC intra: 77.0% 74.8% 44.2% inter: 18.0% 13.8% 1.3%
x264 [info]: i16 v,h,dc,p: 21% 13% 9% 57%
x264 [info]: i8 v,h,dc,ddl,ddr,vr,hd,vl,hu: 17% 9% 7% 8% 12% 12% 12% 11% 12%
x264 [info]: i4 v,h,dc,ddl,ddr,vr,hd,vl,hu: 16% 7% 4% 10% 14% 13% 13% 10% 13%
x264 [info]: i8c dc,h,v,p: 37% 27% 22% 14%
x264 [info]: Weighted P-Frames: Y:6.5% UV:4.5%
x264 [info]: ref P L0: 48.1% 7.2% 17.8% 6.9% 5.5% 4.0% 3.4% 1.9% 1.8% 1.6% 1.6% 0.1% 0.0%
x264 [info]: ref B L0: 74.1% 11.5% 5.4% 2.7% 1.9% 1.5% 1.2% 0.8% 0.6% 0.3%
x264 [info]: ref B L1: 95.0% 5.0%
x264 [info]: kb/s:1630.17

Скриншоты

с названием

[Profile]  [PM] 
Display posts:    
Reply to topic

Current time is: 22-Sep 15:08

All times are UTC + 2



You cannot post new topics in this forum
You cannot reply to topics in this forum
You cannot edit your posts in this forum
You cannot delete your posts in this forum
You cannot vote in polls in this forum
You cannot attach files in this forum
You cannot download files in this forum