Я есть гнев / I Am Wrath (Чак Расселл / Chuck Russell) [2016, США, боевик, триллер, драма, криминал, BDRip] VO (В. Котов)

Reply to topic
 
Author
Message

Satyr ®

Gender: Unknown

Longevity: 11 years

Posts: 15401

Reputation: 55 [+] [-]

Satyr · Post 16-Nov-2016 19:25

[Quote] 

Я есть гнев / I Am Wrath
Страна: США
Жанр: боевик, триллер, драма, криминал
Год выпуска: 2016
Продолжительность: 01:30:34
Перевод: Одноголосый закадровый В. Котов
Cубтитры: нет
Режиссер: Чак Расселл / Chuck Russell
В ролях: Джон Траволта, Майкл Уррикуа, Ребекка Де Морнэй, Кристофер Мелони, Аманда Шулл, Сэм Трэммелл, Патрик Ст. Эсприт, Луис Да Силва мл., Дорис Моргадо
Описание: История человека, чью жену убили и который, отчаявшись дождаться каких-то действий со стороны полиции, решает сам найти преступника и покарать его.
Доп. информация: В отличии http://torrentsland.com.ua/forum/viewtopic.php?t=5220576 другое озвучивание
Сэмпл: http://sendfile.su/1282038
Качество видео: BDRip
Формат видео: AVI
Видео: XviD, 720x304, 23.976 fps, 1850 kbps
Аудио: AC3, 6 ch, 448 kbps

MediaInfo

I:\Я есть гнев I Am Wrath\I.Am.Wrath.2016.AVO.BDRip.1.46Gb.MegaPeer.avi
General
Complete name : I:\Я есть гнев I Am Wrath\I.Am.Wrath.2016.AVO.BDRip.1.46Gb.MegaPeer.avi
Format : AVI
Format/Info : Audio Video Interleave
File size : 1.46 GiB
Duration : 1h 30mn
Overall bit rate : 2 307 Kbps
Video #0
ID : 0
Format : MPEG-4 Visual
Format profile : Advanced Simple@L5
Format settings, BVOP : 1
Format settings, QPel : No
Format settings, GMC : No warppoints
Format settings, Matrix : Custom
Codec ID : XVID
Codec ID/Hint : XviD
Duration : 1h 30mn
Bit rate : 1 851 Kbps
Width : 720 pixels
Height : 304 pixels
Display aspect ratio : 2.35:1
Frame rate : 23.976 fps
Color space : YUV
Chroma subsampling : 4:2:0
Bit depth : 8 bits
Scan type : Progressive
Compression mode : Lossy
Bits/(Pixel*Frame) : 0.353
Stream size : 1.17 GiB (80%)
Writing library : XviD 73
Audio #1
ID : 1
Format : AC-3
Format/Info : Audio Coding 3
Mode extension : CM (complete main)
Format settings, Endianness : Big
Codec ID : 2000
Duration : 1h 30mn
Bit rate mode : Constant
Bit rate : 448 Kbps
Channel count : 6 channels
Channel positions : Front: L C R, Side: L R, LFE
Sampling rate : 48.0 KHz
Bit depth : 16 bits
Compression mode : Lossy
Stream size : 290 MiB (19%)
Alignment : Aligned on interleaves
Interleave, duration : 64 ms (1.53 video frames)
Interleave, preload duration : 192 ms
Title : Котов

Скриншот c названием фильма

Скриншоты

[Profile]  [PM] 
Display posts:    
Reply to topic

Current time is: 19-Sep 10:41

All times are UTC + 2



You cannot post new topics in this forum
You cannot reply to topics in this forum
You cannot edit your posts in this forum
You cannot delete your posts in this forum
You cannot vote in polls in this forum
You cannot attach files in this forum
You cannot download files in this forum