Арло: Говорящий поросёнок / Arlo: The Burping Pig (Том ДеНуччи / Tom DeNucci) [2016, США, Семейный, WEB-DLRip] MVO (iTunes)

Reply to topic
 
Author
Message

Satyr ®

Gender: Unknown

Longevity: 11 years

Posts: 15401

Reputation: 55 [+] [-]

Satyr · Post 17-Nov-2016 16:00

[Quote] 

Арло: Говорящий поросёнок / Arlo: The Burping Pig
Страна: США
Жанр: Семейный
Год выпуска: 2016
Продолжительность: 01:19:41
Перевод: Профессиональный (многоголосый закадровый) iTunes
Cубтитры: нет
Режиссер: Том ДеНуччи / Tom DeNucci-В ролях: Дрэйк Белл, Джозеф Лоуренс, Дженнифер Бини Тейлор, Линдси Бланчард, Джонатан Липники, Эмбер Монтана, Билл Моусли, Майк Черроне, Йен Нилс-Описание: Поросенок Арло, питомец девочки Талии, постоянно попадает в комичные ситуации и радует окружающих. А Талия и одноклассники, благодаря поросенку, стали еще больше дружить.-Сэмпл: http://multi-up.com/1127168-Релиз от: MegaPeer-Качество видео: WEB-DLRip
Формат видео: AVI
Видео: 656x352 (1.85:1), 24.000 fps, XviD build 73, 1174 Kbps
Аудио: 48.0 kHz, MPEG Layer 3, 2 ch, 128 kbps

MediaInfo

General
Complete name : Downloads\Arlo.2016.WEB-DLRip.745MB.MegaPeer.avi
Format : AVI
Format/Info : Audio Video Interleave
File size : 745 MiB
Duration : 1h 19mn
Overall bit rate : 1 308 Kbps
Video #0
ID : 0
Format : MPEG-4 Visual
Format profile : Advanced Simple@L5
Format settings, BVOP : 1
Format settings, QPel : No
Format settings, GMC : No warppoints
Format settings, Matrix : Custom
Codec ID : XVID
Codec ID/Hint : XviD
Duration : 1h 19mn
Bit rate : 1 174 Kbps
Width : 656 pixels
Height : 352 pixels
Display aspect ratio : 1.85:1
Frame rate : 24.000 fps
Color space : YUV
Chroma subsampling : 4:2:0
Bit depth : 8 bits
Scan type : Progressive
Compression mode : Lossy
Bits/(Pixel*Frame) : 0.212
Stream size : 669 MiB (90%)
Writing library : XviD 73
Audio #1
ID : 1
Format : MPEG Audio
Format version : Version 1
Format profile : Layer 3
Mode : Joint stereo
Mode extension : MS Stereo
Codec ID : 55
Codec ID/Hint : MP3
Duration : 1h 19mn
Bit rate mode : Constant
Bit rate : 128 Kbps
Channel(s) : 2 channels
Sampling rate : 48.0 KHz
Compression mode : Lossy
Stream size : 73.0 MiB (10%)
Alignment : Aligned on interleaves
Interleave, duration : 167 ms (4.00 video frames)
Interleave, preload duration : 216 ms
Title : iTunes

Скриншот c названием фильма

Скриншоты

[Profile]  [PM] 
Display posts:    
Reply to topic

Current time is: 28-Jan 14:18

All times are UTC + 2



You cannot post new topics in this forum
You cannot reply to topics in this forum
You cannot edit your posts in this forum
You cannot delete your posts in this forum
You cannot vote in polls in this forum
You cannot attach files in this forum
You cannot download files in this forum