Джек отправляется домой / Jack Goes Home (Томас Деккер / Thomas Alexander Dekker) [2016, США, ужасы, триллер, драма, WEB-DLRip] VO (Хихикающий доктор)

Reply to topic
 
Author
Message

Satyr ®

Gender: Unknown

Longevity: 15 years

Posts: 21940

Reputation: 56 [+] [-]

Satyr · Post 18-Nov-2016 00:10

[Quote] 

Джек отправляется домой / Jack Goes Home
Страна: США
Жанр: ужасы, триллер, драма
Год выпуска: 2016
Продолжительность: 01:44:23
Перевод: Одноголосый закадровый [Хихикающий доктор]
Cубтитры: нет
Оригинальная аудиодорожка: нет
Режиссер: Томас Деккер / Thomas Alexander Dekker
В ролях: Рори Калкин, Бритт Робертсон, Лин Шэй, Никки Рид, Наташа Лионн, Дэйви Чейз, Луис Хантер, Хатчи Хэнкок, Майкл Сироу, Серж Левин
Описание: Джек живет и работает в Лос-Анджелесе. Внезапно он узнаёт, что его родители попали в автокатастрофу — отец умер, а мать отделалась легкими царапинами. Приходится вернуться домой в Колорадо. С отцом у Джека были очень хорошие отношения, поэтому он тяжело переживает потерю, но держит всё в себе. Дома выясняется, что мама ведёт себя как ни в чём не бывало и явно что-то скрывает.
Сэмпл: http://sendfile.su/1282479
Качество видео: WEB-DLRip
Формат видео: AVI
Видео: XviD, 1731 kb/s, 720x304, 23.976 fps
Аудио: AC3, 192 kb/s (2 ch), 48.0 KHz

MediaInfo

) I:\Джек отправляется домой\Jack.Goes.Home.2016.L1.WEB-DLRip.avi
General
Complete name : I:\Джек отправляется домой\Jack.Goes.Home.2016.L1.WEB-DLRip.avi
Format : AVI
Format/Info : Audio Video Interleave
File size : 1.41 GiB
Duration : 1h 44mn
Overall bit rate : 1 933 Kbps
Writing application : VirtualDubMod 1.5.10.3 | www.virtualdub-fr.org || (build 2550/release)
Writing library : VirtualDubMod build 2550/release
Video #0
ID : 0
Format : MPEG-4 Visual
Format profile : Advanced Simple@L5
Format settings, BVOP : 1
Format settings, QPel : No
Format settings, GMC : No warppoints
Format settings, Matrix : Custom
Codec ID : XVID
Codec ID/Hint : XviD
Duration : 1h 44mn
Bit rate : 1 731 Kbps
Width : 720 pixels
Height : 304 pixels
Display aspect ratio : 2.35:1
Frame rate : 23.976 fps
Color space : YUV
Chroma subsampling : 4:2:0
Bit depth : 8 bits
Scan type : Progressive
Compression mode : Lossy
Bits/(Pixel*Frame) : 0.330
Stream size : 1.26 GiB (90%)
Writing library : XviD 73
Audio #1
ID : 1
Format : AC-3
Format/Info : Audio Coding 3
Mode extension : CM (complete main)
Format settings, Endianness : Big
Codec ID : 2000
Duration : 1h 44mn
Bit rate mode : Constant
Bit rate : 192 Kbps
Channel count : 2 channels
Channel positions : Front: L R
Sampling rate : 48.0 KHz
Bit depth : 16 bits
Compression mode : Lossy
Stream size : 143 MiB (10%)
Alignment : Split accross interleaves
Interleave, duration : 42 ms (1.00 video frame)
Interleave, preload duration : 500 ms

Скриншот c названием фильма

Скриншоты

[Profile]  [PM] 
Display posts:    
Reply to topic

Current time is: 19-Jun 12:45

All times are UTC + 2



You cannot post new topics in this forum
You cannot reply to topics in this forum
You cannot edit your posts in this forum
You cannot delete your posts in this forum
You cannot vote in polls in this forum
You cannot attach files in this forum
You cannot download files in this forum