Жаркая страна, холодная зима / Hot Country, Cold Winter (Давид Сафарян / David Safaryan) [2016, Армения, драма, комедия, SATRip]

Reply to topic
 
Author
Message

Satyr ®

Gender: Unknown

Longevity: 11 years

Posts: 15401

Reputation: 55 [+] [-]

Satyr · Post 18-Nov-2016 12:30

[Quote] 

Жаркая страна, холодная зима / Hot Country, Cold Winter / Tak erkir, tsurt dzmer / Տաք Երկիր, Ցուրտ Ձմեռ
Страна: Армения
Жанр: драма, комедия
Год выпуска: 2016
Продолжительность: 01:40:04
Перевод: не требуется
Cубтитры: нет
Оригинальная аудиодорожка: русская
Режиссер: Давид Сафарян / David Safaryan
В ролях: Ашот Адамян, Яна Друзь, Карен Джанибекян, Виген Степанян, Арутюн Мовсисян, Грачя Арутюнян, Анна Соколова, Сергей Киракосян, Ваник Смбатян, Армине Исаян, Эгине Оганнисян и другие.
Описание: Действие фильма происходит в одну из суровых блокадных зим прошедшего десятилетия. Это обыкновенная история взаимоотношений археолога Тиграна и мастерицы, делающей куклы. И хотя, по сценарию, все в фильме будет происходить в городе, где нет ни света, ни тепла, ни нормальных жизненных условий, жанр его определяется как комедия. Потому что выживать в такой ситуации людям помогает юмор и душевная теплота.
Доп. информация: Рип с канала Культура.
Сэмпл: http://multi-up.com/1127430
Качество видео: SATRip
Формат видео: AVI
Видео: MPEG4, XviD, 720x384 (1.875), 25.000 fps, 1 881 Kbps (0.272 bit/pixel)
Аудио: AC-3, 48.0 KHz, 2 ch, 192 Kbps, CBR

MediaInfo

Общее
Полное имя : M:\Жаркая страна, холодная зима.avi
Формат : AVI
Формат/Информация : Audio Video Interleave
Размер файла : 1,46 Гбайт
Продолжительность : 1 ч. 40 м.
Общий поток : 2082 Кбит/сек
Название фильма : Жаркая страна, холодная зима / Hot Country, Cold Winter / Tak erkir, tsurt dzmer (2016)
Программа кодирования : VirtualDubMod 1.5.10.2 (build 2540/release)
Библиотека кодирования : VirtualDubMod build 2540/release
Авторское право : miha2154
Видео
Идентификатор : 0
Формат : MPEG-4 Visual
Профиль формата : Advanced Simple@L5
Параметр BVOP формата : 1
Параметр QPel формата : Нет
Параметр GMC формата : Без точки перехода
Параметр матрицы формата : Выборочная
Идентификатор кодека : XVID
Идентификатор кодека/Подсказка : XviD
Продолжительность : 1 ч. 40 м.
Битрейт : 1880 Кбит/сек
Ширина : 720 пикселей
Высота : 384 пикселя
Соотношение сторон : 1,85:1
Частота кадров : 25,000 кадров/сек
Цветовое пространство : YUV
Субдискретизация насыщенности : 4:2:0
Битовая глубина : 8 бит
Тип развёртки : Прогрессивная
Метод сжатия : С потерями
Бит/(Пиксели*Кадры) : 0.272
Размер потока : 1,31 Гбайт (90%)
Библиотека кодирования : XviD 65
Аудио
Идентификатор : 1
Формат : AC-3
Формат/Информация : Audio Coding 3
Расширение режима : CM (complete main)
Параметр Endianness формата : Big
Идентификатор кодека : 2000
Продолжительность : 1 ч. 40 м.
Вид битрейта : Постоянный
Битрейт : 192 Кбит/сек
Каналы : 2 канала
Расположение каналов : Front: L R
Частота : 48,0 КГц
Частота кадров : 31,250 кадров/сек (1536 spf)
Метод сжатия : С потерями
Размер потока : 137 Мбайт (9%)
Выравнивание : Разделение по промежуткам
Продолжительность промежутка : 40 мс. (1,00 видеокадр)
Время предзагрузки промежутка : 500 мс.

Скриншоты


[Profile]  [PM] 
Display posts:    
Reply to topic

Current time is: 26-Sep 04:24

All times are UTC + 2



You cannot post new topics in this forum
You cannot reply to topics in this forum
You cannot edit your posts in this forum
You cannot delete your posts in this forum
You cannot vote in polls in this forum
You cannot attach files in this forum
You cannot download files in this forum