Джейсон Борн / Jason Bourne (Пол Гринграсс / Paul Greengrass) [2016, Великобритания, Китай, США, боевик, триллер, BDRip-AVC] Dub + Original + Sub (rus, eng)

Reply to topic
 
Author
Message

Satyr ®

Gender: Unknown

Longevity: 11 years

Posts: 15401

Reputation: 55 [+] [-]

Satyr · Post 19-Nov-2016 21:25

[Quote] 

Джейсон Борн / Jason Bourne«Вы знаете его имя»- Страна: Великобритания, Китай, США
Жанр: боевик, триллер
Год выпуска: 2016
Продолжительность: 02:03:11
Перевод: Профессиональный (дублированный) (BD EUR)
Оригинальная аудиодорожка: английский
Субтитры: русские (форс., полные) английские (полные, SDH)
Навигация по главам: есть
Режиссер: Пол Гринграсс / Paul Greengrass
В ролях: Мэтт Дэймон (Jason Bourne), Алисия Викандер (Heather Lee), Томми Ли Джонс (CIA Director Robert Dewey), Венсан Кассель (Asset), Джулия Стайлз (Nicky Parsons), Риз Ахмед (Aaron Kalloor), Ато Эссонда (Craig Jeffers), Скотт Шеперд (Director NI Edwin Russell), Билл Кэмп (Malcolm Smith), Винцец Кифер (Christian Dassault), Стефан Канкен (Baumen), Бен Стиляну (Greek Van Driver)
Описание: Мир на грани катастрофы, а значит пришло время ему вернуться. Неаполь, Мюнхен, Нью-Йорк - его имя знают повсюду. Элитный суперагент, лучший из лучших, даже в Лас-Вегасе игра пойдет по его правилам. Он - Джейсон Борн.- -Качество: BDRip-AVC (исходник - Blu-ray|JASON_BOURNE_BD_EUR_BLUEBIRD)
Формат видео: MKV
Видео: x264, 1032x432 (2.40:1) 23,976 fps, ~1893 kbps, 0.177 bit/pixel
Аудио 1: 48 kHz, AC3 Dolby Digital, 3/2 (L,C,R,l,r) + LFE ch, ~448 kbps [русский]
Аудио 2: 48 kHz, AC3 Dolby Digital, 2/0 (L,R) ch, ~192 kbps [английский]
Формат субтитров: softsub (SRT)-

MediaInfo | x264 log

Format : Matroska
Format version : Version 4 / Version 2
File size : 2.18 GiB
Duration : 2h 3 min
Overall bit rate : 2 531 kb/s
Movie name : Джейсон Борн / Jason Bourne (2016) :: AFM ::
Encoded date : UTC 2016-11-19 02:56:53
Writing application : mkvmerge v8.3.0 ('Over the Horizon') 32bit
Writing library : libebml v1.3.1 + libmatroska v1.4.2
Video
ID : 1
Format : AVC
Format/Info : Advanced Video Codec
Format profile : High@L4.1
Format settings, CABAC : Yes
Format settings, ReFrames : 11 frames
Codec ID : V_MPEG4/ISO/AVC
Duration : 2h 3 min
Bit rate : 1 893 kb/s
Width : 1 032 pixels
Height : 432 pixels
Display aspect ratio : 2.40:1
Frame rate mode : Constant
Frame rate : 23.976 (24000/1001) FPS
Color space : YUV
Chroma subsampling : 4:2:0
Bit depth : 8 bits
Scan type : Progressive
Bits/(Pixel*Frame) : 0.177
Stream size : 1.58 GiB (73%)
Title : BDRip by AFM
Writing library : x264 core 148 r2721+55 e19946b t_mod_Custom [8-bit@all X86_64]
Encoding settings : cabac=1 / ref=11 / deblock=1:-3:-2 / analyse=0x3:0x113 / me=umh / subme=10 / psy=1 / fade_compensate=0.00 / psy_rd=1.00:0.00 / mixed_ref=1 / me_range=32 / chroma_me=1 / trellis=2 / 8x8dct=1 / cqm=0 / deadzone=21,11 / fast_pskip=0 / chroma_qp_offset=-2 / threads=6 / lookahead_threads=1 / sliced_threads=0 / nr=0 / decimate=0 / interlaced=0 / bluray_compat=0 / constrained_intra=0 / fgo=0 / bframes=12 / b_pyramid=2 / b_adapt=2 / b_bias=0 / direct=3 / weightb=1 / open_gop=0 / weightp=2 / keyint=240 / keyint_min=23 / scenecut=40 / intra_refresh=0 / rc_lookahead=40 / rc=2pass / mbtree=0 / bitrate=1893 / ratetol=1.0 / qcomp=0.65 / qpmin=0:0:0 / qpmax=69:69:69 / qpstep=4 / cplxblur=20.0 / qblur=0.5 / vbv_maxrate=50000 / vbv_bufsize=62500 / nal_hrd=none / filler=0 / ip_ratio=1.30 / pb_ratio=1.28 / aq=3:0.85 / aq-sensitivity=10.00 / aq-factor=1.00:1.00:1.00 / aq2=0 / aq3=0 / zones=167284,177220,q=30
Language : English
Default : Yes
Forced : No
Audio #1
ID : 2
Format : AC-3
Format/Info : Audio Coding 3
Mode extension : CM (complete main)
Format settings, Endianness : Big
Codec ID : A_AC3
Duration : 2h 3 min
Bit rate mode : Constant
Bit rate : 448 kb/s
Channel(s) : 6 channels
Channel positions : Front: L C R, Side: L R, LFE
Sampling rate : 48.0 kHz
Frame rate : 31.250 FPS (1536 spf)
Compression mode : Lossy
Stream size : 395 MiB (18%)
Title : Dub, AC3 5.1 ~448 kbps
Language : Russian
Default : Yes
Forced : No
Audio #2
ID : 3
Format : AC-3
Format/Info : Audio Coding 3
Mode extension : CM (complete main)
Format settings, Endianness : Big
Codec ID : A_AC3
Duration : 2h 3 min
Bit rate mode : Constant
Bit rate : 192 kb/s
Channel(s) : 2 channels
Channel positions : Front: L R
Sampling rate : 48.0 kHz
Frame rate : 31.250 FPS (1536 spf)
Compression mode : Lossy
Stream size : 169 MiB (8%)
Title : Original, AC3 2.0 ~192 kbps
Language : English
Default : No
Forced : No
Text #1
ID : 4
Format : UTF-8
Codec ID : S_TEXT/UTF8
Codec ID/Info : UTF-8 Plain Text
Title : forced
Language : Russian
Default : Yes
Forced : No
Text #2
ID : 5
Format : UTF-8
Codec ID : S_TEXT/UTF8
Codec ID/Info : UTF-8 Plain Text
Language : Russian
Default : No
Forced : No
Text #3
ID : 6
Format : UTF-8
Codec ID : S_TEXT/UTF8
Codec ID/Info : UTF-8 Plain Text
Language : English
Default : No
Forced : No
Text #4
ID : 7
Format : UTF-8
Codec ID : S_TEXT/UTF8
Codec ID/Info : UTF-8 Plain Text
Title : SDH
Language : English
Default : No
Forced : No
Menu
00:00:00.000 : en:Chapter 1
00:04:04.661 : en:Chapter 2
00:08:21.543 : en:Chapter 3
00:13:32.687 : en:Chapter 4
00:18:28.316 : en:Chapter 5
00:24:07.237 : en:Chapter 6
00:29:21.259 : en:Chapter 7
00:36:15.548 : en:Chapter 8
00:42:20.663 : en:Chapter 9
00:48:22.441 : en:Chapter 10
00:55:12.184 : en:Chapter 11
01:01:09.666 : en:Chapter 12
01:08:32.483 : en:Chapter 13
01:16:23.329 : en:Chapter 14
01:24:45.330 : en:Chapter 15
01:29:06.550 : en:Chapter 16
01:37:52.909 : en:Chapter 17
01:44:26.343 : en:Chapter 18
01:48:03.727 : en:Chapter 19
01:54:01.209 : en:Chapter 20

x264

x264 [info]: frame I:1175 Avg QP:16.62 size: 49323
x264 [info]: frame P:51971 Avg QP:20.06 size: 17529
x264 [info]: frame B:124074 Avg QP:21.76 size: 6255
x264 [info]: consecutive B-frames: 6.8% 8.7% 19.2% 19.2% 14.2% 20.6% 4.6% 1.2% 1.7% 1.1% 0.9% 0.5% 1.2%
x264 [info]: mb I I16..4: 6.9% 76.1% 17.0%
x264 [info]: mb P I16..4: 3.3% 13.9% 2.2% P16..4: 40.3% 23.0% 11.5% 0.0% 0.0% skip: 5.8%
x264 [info]: mb B I16..4: 0.2% 0.8% 0.2% B16..8: 43.6% 11.4% 2.7% direct: 5.1% skip:36.1% L0:46.4% L1:45.4% BI: 8.3%
x264 [info]: 8x8 transform intra:71.9% inter:68.4%
x264 [info]: direct mvs spatial:98.0% temporal:2.0%
x264 [info]: coded y,uvDC,uvAC intra: 73.8% 71.8% 47.2% inter: 24.6% 20.9% 8.3%
x264 [info]: i16 v,h,dc,p: 30% 20% 9% 42%
x264 [info]: i8 v,h,dc,ddl,ddr,vr,hd,vl,hu: 9% 11% 8% 9% 14% 13% 14% 11% 12%
x264 [info]: i4 v,h,dc,ddl,ddr,vr,hd,vl,hu: 9% 13% 5% 10% 15% 12% 14% 10% 13%
x264 [info]: i8c dc,h,v,p: 37% 27% 18% 18%
x264 [info]: Weighted P-Frames: Y:3.9% UV:2.0%
x264 [info]: ref P L0: 51.7% 9.1% 15.1% 6.2% 4.7% 3.5% 3.4% 1.7% 1.6% 1.4% 1.3% 0.3% 0.0%
x264 [info]: ref B L0: 73.4% 11.3% 5.8% 2.9% 1.9% 1.6% 1.5% 0.9% 0.5% 0.2%
x264 [info]: ref B L1: 94.9% 5.1%
x264 [info]: kb/s:1888.73

Скриншоты

с названием

[Profile]  [PM] 
Display posts:    
Reply to topic

Current time is: 25-Sep 04:36

All times are UTC + 2



You cannot post new topics in this forum
You cannot reply to topics in this forum
You cannot edit your posts in this forum
You cannot delete your posts in this forum
You cannot vote in polls in this forum
You cannot attach files in this forum
You cannot download files in this forum