Не дыши / Don\'t Breathe (Федерико Альварес / Federico Alvarez) [2016, США , ужасы, триллер, криминал, BDRip-AVC] Dub + Original + Sub (rus, eng)

Reply to topic
 
Author
Message

Satyr ®

Gender: Unknown

Longevity: 11 years

Posts: 15401

Reputation: 55 [+] [-]

Satyr · Post 20-Nov-2016 18:00

[Quote] 

Не дыши / Don't Breathe- Страна: США | Screen Gems, Stage 6 Films
Жанр: ужасы, триллер, криминал
Год выпуска: 2016
Продолжительность: 01:28:32
Перевод: Профессиональный (полное дублирование)
Cубтитры: Русские (forced, full), английские
Оригинальная аудиодорожка: английский
Режиссер: Федерико Альварес / Federico Alvarez
В ролях: Стивен Лэнг, Джейн Леви, Дилан Миннетт, Дэниэл Дзоватто, Эмма Берковичи, Франциска Тёрёчик, Кристиан Сахиа, Катя Бокор
Описание: Грабители забираются в дом одинокого слепого старика с целью украсть огромную сумму, которая, по слухам, спрятана где-то внутри. Казалось бы — что может быть проще, чем вынести деньги из дома практически беспомощного человека. Но они жестоко ошибаются: преследуемый становится преследователем. И тайна, которую он хранит, гораздо страшнее, чем обычные пенсионные накопления.
Сэмпл: http://multi-up.com/1127429
Качество видео: BDRip-AVC (источник: DONT_BREATHE_REMUX_HDCLUB)
Формат видео: MKV
Видео: x264, 1056x440 (2.40:1) 23,976 fps, ~2673 kbps, 0,240 bit/pixel
Аудио 1: 48 kHz, AC3 Dolby Digital, 3/2 (L,C,R,l,r) + LFE ch, ~384 kbps [русский, iTunes Russia]
Аудио 2: 48 kHz, AC3 Dolby Digital, 3/2 (L,C,R,l,r) + LFE ch, ~448 kbps [английский]
Формат субтитров: softsub (SRT)

MediaInfo

General
Unique ID : 223170803562562637019628577887299489293 (0xA7E52221E04FF914AAFFCDADF8B2CE0D)
Format : Matroska
Format version : Version 4 / Version 2
File size : 2.17 GiB
Duration : 1h 28mn
Overall bit rate : 3 507 Kbps
Movie name : Don't.Breathe.2016.
Encoded date : UTC 2016-11-18 05:19:14
Writing application : mkvmerge v9.5.0 ('Quiet Fire') 64bit
Writing library : libebml v1.3.4 + libmatroska v1.4.5
Video #1
ID : 1
Format : AVC
Format/Info : Advanced Video Codec
Format profile : High@L4.1
Format settings, CABAC : Yes
Format settings, ReFrames : 11 frames
Codec ID : V_MPEG4/ISO/AVC
Duration : 1h 28mn
Bit rate : 2 673 Kbps
Width : 1 056 pixels
Height : 440 pixels
Display aspect ratio : 2.40:1
Frame rate mode : Constant
Frame rate : 23.976 (24000/1001) fps
Color space : YUV
Chroma subsampling : 4:2:0
Bit depth : 8 bits
Scan type : Progressive
Bits/(Pixel*Frame) : 0.240
Stream size : 1.65 GiB (76%)
Writing library : x264 core 146 r2538 121396c
Encoding settings : cabac=1 / ref=11 / deblock=1:-3:-2 / analyse=0x3:0x113 / me=umh / subme=10 / psy=1 / psy_rd=1.00:0.00 / mixed_ref=1 / me_range=32 / chroma_me=1 / trellis=2 / 8x8dct=1 / cqm=0 / deadzone=21,11 / fast_pskip=1 / chroma_qp_offset=-2 / threads=6 / lookahead_threads=1 / sliced_threads=0 / nr=0 / decimate=1 / interlaced=0 / bluray_compat=0 / constrained_intra=0 / bframes=10 / b_pyramid=2 / b_adapt=2 / b_bias=0 / direct=3 / weightb=1 / open_gop=0 / weightp=2 / keyint=250 / keyint_min=23 / scenecut=40 / intra_refresh=0 / rc_lookahead=50 / rc=2pass / mbtree=1 / bitrate=2673 / ratetol=1.0 / qcomp=0.60 / qpmin=0 / qpmax=69 / qpstep=4 / cplxblur=20.0 / qblur=0.5 / ip_ratio=1.40 / aq=1:1.00
Language : English
Default : Yes
Forced : No
Audio #2
ID : 2
Format : AC-3
Format/Info : Audio Coding 3
Mode extension : CM (complete main)
Format settings, Endianness : Big
Codec ID : A_AC3
Duration : 1h 28mn
Bit rate mode : Constant
Bit rate : 384 Kbps
Channel(s) : 6 channels
Channel positions : Front: L C R, Side: L R, LFE
Sampling rate : 48.0 KHz
Frame rate : 31.250 fps (1536 spf)
Compression mode : Lossy
Stream size : 243 MiB (11%)
Title : iTunes
Language : Russian
Default : Yes
Forced : No
Audio #3
ID : 3
Format : AC-3
Format/Info : Audio Coding 3
Mode extension : CM (complete main)
Format settings, Endianness : Big
Codec ID : A_AC3
Duration : 1h 28mn
Bit rate mode : Constant
Bit rate : 448 Kbps
Channel(s) : 6 channels
Channel positions : Front: L C R, Side: L R, LFE
Sampling rate : 48.0 KHz
Frame rate : 31.250 fps (1536 spf)
Compression mode : Lossy
Stream size : 284 MiB (13%)
Title : Original
Language : English
Default : No
Forced : No
Text #4
ID : 4
Format : UTF-8
Codec ID : S_TEXT/UTF8
Codec ID/Info : UTF-8 Plain Text
Duration : 31mn 25s
Bit rate : 1 bps
Count of elements : 8
Stream size : 283 Bytes (0%)
Title : Forced [iTunes]
Language : Russian
Default : Yes
Forced : No
Text #5
ID : 5
Format : UTF-8
Codec ID : S_TEXT/UTF8
Codec ID/Info : UTF-8 Plain Text
Duration : 1h 22mn
Bit rate : 36 bps
Count of elements : 519
Stream size : 22.1 KiB (0%)
Title : Full [iTunes]
Language : Russian
Default : No
Forced : No
Text #6
ID : 6
Format : UTF-8
Codec ID : S_TEXT/UTF8
Codec ID/Info : UTF-8 Plain Text
Duration : 1h 20mn
Bit rate : 24 bps
Count of elements : 601
Stream size : 14.6 KiB (0%)
Title : Full
Language : English
Default : No
Forced : No
Text #7
ID : 7
Format : UTF-8
Codec ID : S_TEXT/UTF8
Codec ID/Info : UTF-8 Plain Text
Duration : 1h 25mn
Bit rate : 34 bps
Count of elements : 1076
Stream size : 21.9 KiB (0%)
Title : SDH
Language : English
Default : No
Forced : No

лог

raw [info]: 1056x440p 1:1 @ 24000/1001 fps (cfr)
x264 [info]: using SAR=1/1
x264 [info]: using cpu capabilities: MMX2 SSE2Fast SSSE3 SSE4.2 AVX XOP FMA4 FMA3 LZCNT BMI1
x264 [info]: profile High, level 4.1
x264 [info]: frame I:902 Avg QP:11.33 size: 90534
x264 [info]: frame P:25999 Avg QP:14.07 size: 29916
x264 [info]: frame B:100467 Avg QP:16.39 size: 9112
x264 [info]: consecutive B-frames: 1.8% 2.3% 7.1% 15.2% 17.8% 34.9% 8.0% 6.5% 4.5% 1.1% 0.7%
x264 [info]: mb I I16..4: 4.8% 73.9% 21.3%
x264 [info]: mb P I16..4: 1.1% 10.3% 1.3% P16..4: 32.8% 31.2% 20.3% 0.0% 0.0% skip: 3.0%
x264 [info]: mb B I16..4: 0.1% 0.9% 0.1% B16..8: 38.2% 17.3% 5.8% direct: 5.6% skip:32.0% L0:45.8% L1:44.8% BI: 9.3%
x264 [info]: 8x8 transform intra:81.5% inter:55.7%
x264 [info]: direct mvs spatial:97.3% temporal:2.7%
x264 [info]: coded y,uvDC,uvAC intra: 89.1% 90.4% 80.0% inter: 28.2% 20.9% 7.8%
x264 [info]: i16 v,h,dc,p: 36% 14% 13% 37%
x264 [info]: i8 v,h,dc,ddl,ddr,vr,hd,vl,hu: 13% 8% 11% 9% 12% 12% 12% 11% 12%
x264 [info]: i4 v,h,dc,ddl,ddr,vr,hd,vl,hu: 13% 7% 6% 11% 15% 13% 12% 11% 13%
x264 [info]: i8c dc,h,v,p: 50% 18% 16% 16%
x264 [info]: Weighted P-Frames: Y:4.0% UV:1.8%
x264 [info]: ref P L0: 45.3% 7.1% 18.4% 7.5% 6.1% 4.3% 3.8% 2.1% 1.9% 1.6% 1.6% 0.3% 0.0%
x264 [info]: ref B L0: 66.2% 14.6% 7.1% 3.7% 2.6% 2.2% 1.8% 1.1% 0.6% 0.3%
x264 [info]: ref B L1: 90.1% 9.9%
x264 [info]: kb/s:2672.85
x264 [total]: encoded 127368 frames, 6.35 fps, 2672.85 kb/s

Скриншоты


[Profile]  [PM] 
Display posts:    
Reply to topic

Current time is: 25-Sep 00:26

All times are UTC + 2



You cannot post new topics in this forum
You cannot reply to topics in this forum
You cannot edit your posts in this forum
You cannot delete your posts in this forum
You cannot vote in polls in this forum
You cannot attach files in this forum
You cannot download files in this forum