Фантастические твари и где они обитают / Fantastic Beasts and Where to Find Them (Дэвид Йейтс) [2016 г., Фэнтези, приключения, семейный, экранизация, CAMRip]

Reply to topic
 
Author
Message

groozin ®

Gender: Male

Longevity: 4 years

Posts: 45

Reputation: 0 [+] [-]

Location: ЛНР

groozin · Post 21-Nov-2016 13:36

[Quote] 

Фантастические твари и где они обитают /
Fantastic Beasts and Where to Find Them
-«Открой новую главу волшебного мира Дж.К.Роулинг»-
Год выпуска: 2016
Страна: Великобритания, США / Cinesite, Double Negative, Framestore
Жанр: Фэнтези, приключения, семейный, экранизация
Продолжительность: 02:04:00
Перевод: Дублированный |звук с CAMRip|
Режиссер: Дэвид Йейтс
В ролях: Эдди Редмэйн, Кэтрин Уотерстон, Дэн Фоглер, Элисон Судол, Колин Фаррелл, Кармен Эджого, Эзра Миллер, Саманта Мортон, Рон Перлман, Джон Войт

Описание:
1926 год. Зоолог-волшебник Ньют Саламандер нелегально вывозит в чемодане редких магических зверей, чтобы переселить оставшихся особей в более подходящую среду обитания и, тем самым, сохранить их как вид. Но при очередном прохождении нью-йоркской таможни что-то идет не так и несколько опасных существ оказываются на воле. Саламандеру необходимо как можно быстрее упаковать разбежавшийся зверинец обратно в чемодан, ведь на его поиски уже выдвинулись местные волшебные власти. Дело осложняется назревающим конфликтом между магами и не-магами (американское название маглов), за которым стоит тайное общество анархистов-радикалов "Новый Салем". Его адепты вынашивают жуткий план по честному отъему волшебных палочек во всем мире.
-12+         Зрителям, достигшим 12 лет- -

MediaInfo:

Общее
Полное имя : E:\TORRENTY\Films\Fantastisheskie.Tvary.2016.CAMRip\Fantastisheskie.Tvary.2016.CAMRip\Fantastisheskie.Tvary.2016.CAMRip.avi
Формат : AVI
Формат/Информация : Audio Video Interleave
Размер файла : 1,37 Гбайт
Продолжительность : 2 ч. 4 м.
Общий поток : 1585 Кбит/сек
Название фильма : Fantastisheskaya.Tvar.2016.D.CAMRip.Rustorrents
Режиссёр : Rustorrents.info
Программа кодирования : VirtualDubMod 1.5.10.3 | www.virtualdub-fr.org || (build 2550/release)
Видео
Идентификатор : 0
Формат : MPEG-4 Visual
Профиль формата : Advanced Simple@L5
Параметр BVOP формата : 2
Параметр QPel формата : Нет
Параметр GMC формата : Без точки перехода
Параметр матрицы формата : Выборочная
Идентификатор кодека : XVID
Идентификатор кодека/Подсказка : XviD
Продолжительность : 2 ч. 4 м.
Битрейт : 1190 Кбит/сек
Ширина : 720 пикселей
Высота : 320 пикселей
Соотношение сторон : 2,25:1
Частота кадров : 30,000 кадров/сек
Цветовое пространство : YUV
Субдискретизация насыщенности : 4:2:0
Битовая глубина : 8 бит
Тип развёртки : Прогрессивная
Метод сжатия : С потерями
Бит/(Пиксели*Кадры) : 0.172
Размер потока : 1,03 Гбайт (75%)
Библиотека кодирования : XviD 1.2.1 (UTC 2008-12-04)
Аудио
Идентификатор : 1
Формат : AC-3
Формат/Информация : Audio Coding 3
Расширение режима : CM (complete main)
Параметр Endianness формата : Big
Идентификатор кодека : 2000
Продолжительность : 2 ч. 3 м.
Вид битрейта : Постоянный
Битрейт : 384 Кбит/сек
Каналы : 2 канала
Расположение каналов : Front: L R
Частота : 48,0 КГц
Частота кадров : 31,250 кадров/сек (1536 spf)
Метод сжатия : С потерями
Размер потока : 341 Мбайт (24%)
Выравнивание : Разделение по промежуткам
Продолжительность промежутка : 33 мс. (1,00 видеокадр)
Время предзагрузки промежутка : 500 мс.
Качество: CAMRip
Формат: AVI
Данные видео: 720x320, XviD, 1190 Kbps, 30,000 fps, 0.172 Бит/(Пиксели*Кадры)
Аудио: русский: AC3, 384 Kbps, 2 ch, 48 kHz

Субтитры: нет

Скриншоты


[Profile]  [PM] 

groozin

Gender: Male

Longevity: 4 years

Posts: 45

Reputation: 0 [+] [-]

Location: ЛНР

groozin · Post 21-Nov-2016 13:52 (after 16 minutes)

[Quote] 

Без рекламы! Для камрипа очень даже неплохое качество!
[Profile]  [PM] 
Display posts:    
Reply to topic

Current time is: 25-Sep 00:33

All times are UTC + 2



You cannot post new topics in this forum
You cannot reply to topics in this forum
You cannot edit your posts in this forum
You cannot delete your posts in this forum
You cannot vote in polls in this forum
You cannot attach files in this forum
You cannot download files in this forum