Пит и его дракон / Pete\'s Dragon (Дэвид Лоури / David Lowery) [2016, США, фэнтези, приключения, семейный, HDRip] Dub

Reply to topic
 
Author
Message

Satyr ®

Gender: Unknown

Longevity: 15 years

Posts: 21940

Reputation: 56 [+] [-]

Satyr · Post 22-Nov-2016 10:50

[Quote] 

Пит и его дракон / Pete's Dragon
Страна: США
Жанр: фэнтези, приключения, семейный
Год выпуска: 2016
Продолжительность: 01:42:45
Перевод: Профессиональный (дублированный) Blu-ray EUR
Cубтитры: нет
Оригинальная аудиодорожка: нет-Режиссер: Дэвид Лоури / David Lowery-В ролях: Брайс Даллас Ховард, Роберт Редфорд, Оакс Фигли, Уна Лоуренс, Уэс Бентли, Карл Урбан, Исайя Уитлок мл., Маркус Хендерсон, Аарон Джексон, Филип Грив-Описание: В течение многих лет Мистер Мичем забавлял местных детишек сказочными историями о свирепом драконе, обитающим на севере, глубоко в лесах. Для его дочери Грейс все эти истории казались ничем иным как выдумкой, ровно до тех пор, пока она не встретила в лесу маленького мальчика по имени Пит. Пит уже долгое время живет в диком лесу, у него нет ни дома, ни семьи, зато есть замечательный друг — огромный зеленый дракон Эллиот. Грейс решает разгадать историю юного Пита, узнать всю правду о его семье и загадочном драконе, о котором ходит так много слухов и легенд.-Качество видео: HDRip
Формат видео: AVI
Видео: 688x288 (2.39:1), 23.976 fps, XviD build 73 ~878 kbps avg, 0.19 bit/pixel
Аудио: 48 kHz, MPEG Layer 3, 2 ch, ~128.00 kbps avg-Скачать сэмпл-

MediaInfo

Формат                                   : AVI
Формат/Информация                        : Audio Video Interleave
Размер файла                             : 747 Мбайт
Продолжительность                        : 1 ч. 42 м.
Общий поток                              : 1016 Кбит/сек
Программа кодирования                    : VirtualDubMod 1.5.10.3 | www.virtualdub-fr.org || (build 2550/release)
Библиотека кодирования                   : VirtualDubMod build 2550/release
Видео
Идентификатор                            : 0
Формат                                   : MPEG-4 Visual
Профиль формата                          : Advanced Simple@L5
Параметр BVOP формата                    : 1
Параметр QPel формата                    : Нет
Параметр GMC формата                     : Без точки перехода
Параметр матрицы формата                 : Выборочная
Идентификатор кодека                     : XVID
Идентификатор кодека/Подсказка           : XviD
Продолжительность                        : 1 ч. 42 м.
Битрейт                                  : 878 Кбит/сек
Ширина                                   : 688 пикселей
Высота                                   : 288 пикселей
Соотношение сторон                       : 2,40:1
Частота кадров                           : 23,976 (23976/1000) кадра/сек
Цветовое пространство                    : YUV
Субдискретизация насыщенности            : 4:2:0
Битовая глубина                          : 8 бит
Тип развёртки                            : Прогрессивная
Метод сжатия                             : С потерями
Бит/(Пиксели*Кадры)                      : 0.185
Размер потока                            : 646 Мбайт (86%)
Библиотека кодирования                   : XviD 73
Аудио
Идентификатор                            : 1
Формат                                   : MPEG Audio
Версия формата                           : Version 1
Профиль формата                          : Layer 3
Идентификатор кодека                     : 55
Идентификатор кодека/Подсказка           : MP3
Продолжительность                        : 1 ч. 42 м.
Вид битрейта                             : Постоянный
Битрейт                                  : 128 Кбит/сек
Каналы                                   : 2 канала
Частота                                  : 48,0 КГц
Метод сжатия                             : С потерями
Размер потока                            : 94,1 Мбайт (13%)
Выравнивание                             : Соединение по промежуткам
Продолжительность промежутка             : 42  мс. (1,00 видеокадр)
Время предзагрузки промежутка            : 504  мс.
Библиотека кодирования                   : LAME3.99r
Настройки программы                      : -m s -V 4 -q 2 -lowpass 17 -b 128

Скриншоты

[Profile]  [PM] 
Display posts:    
Reply to topic

Current time is: 19-Jun 13:08

All times are UTC + 2



You cannot post new topics in this forum
You cannot reply to topics in this forum
You cannot edit your posts in this forum
You cannot delete your posts in this forum
You cannot vote in polls in this forum
You cannot attach files in this forum
You cannot download files in this forum