Пит и его дракон / Pete\'s Dragon (Дэвид Лоури / David Lowery) [2016, США, Фэнтези, приключения, семейный, BDRip] Dub (Лицензия)

Reply to topic
 
Author
Message

Satyr ®

Gender: Unknown

Longevity: 11 years

Posts: 15401

Reputation: 55 [+] [-]

Satyr · Post 22-Nov-2016 10:50

[Quote] 

Пит и его дракон / Pete's Dragon
Страна: США
Жанр: Фэнтези, приключения, семейный
Год выпуска: 2016
Продолжительность: 01:42:45
Перевод: Профессиональный (дублированный) Лицензия
Cубтитры: Русские форсированные (отдельно)
Режиссер: Дэвид Лоури / David Lowery
В ролях: Брайс Даллас Ховард, Роберт Редфорд, Оакс Фигли, Уна Лоуренс, Уэс Бентли, Карл Урбан, Исайя Уитлок мл., Маркус Хендерсон, Аарон Джексон, Филип Грив
Описание: В течение многих лет Мистер Мичем забавлял местных детишек сказочными историями о свирепом драконе, обитающим на севере, глубоко в лесах. Для его дочери Грейс все эти истории казались ничем иным как выдумкой, ровно до тех пор, пока она не встретила в лесу маленького мальчика по имени Пит. Пит уже долгое время живет в диком лесу, у него нет ни дома, ни семьи, зато есть замечательный друг — огромный зеленый дракон Эллиот. Грейс решает разгадать историю юного Пита, узнать всю правду о его семье и загадочном драконе, о котором ходит так много слухов и легенд.
Сэмпл
Качество видео: BDRip | BDRemux ExKinoRay |
Формат видео: AVI
Видео: 720x304 (2.37:1), 23.976 fps, XviD build 73 ~1578 kbps avg, 0.30 bit/pixel
Аудио: 48 kHz, AC3 Dolby Digital, 3/2 (L,C,R,l,r) + LFE ch, ~448 kbps - BD

MediaInfo

Общее
Полное имя : D:\Pete's.Dragon.2016.BDRip.1.46Gb.Dub.MegaPeer.avi
Формат : AVI
Формат/Информация : Audio Video Interleave
Размер файла : 1,46 Гбайт
Продолжительность : 1 ч. 42 м.
Общий поток : 2034 Кбит/сек
Видео
Идентификатор : 0
Формат : MPEG-4 Visual
Профиль формата : Advanced Simple@L5
Параметр BVOP формата : 1
Параметр QPel формата : Нет
Параметр GMC формата : Без точки перехода
Параметр матрицы формата : Выборочная
Идентификатор кодека : XVID
Идентификатор кодека/Подсказка : XviD
Продолжительность : 1 ч. 42 м.
Битрейт : 1579 Кбит/сек
Ширина : 720 пикселей
Высота : 304 пикселя
Соотношение сторон : 2,35:1
Частота кадров : 23,976 (24000/1001) кадра/сек
Цветовое пространство : YUV
Субдискретизация насыщенности : 4:2:0
Битовая глубина : 8 бит
Тип развёртки : Прогрессивная
Метод сжатия : С потерями
Бит/(Пиксели*Кадры) : 0.301
Размер потока : 1,13 Гбайт (78%)
Библиотека кодирования : XviD 73
Аудио
Идентификатор : 1
Формат : AC-3
Формат/Информация : Audio Coding 3
Расширение режима : CM (complete main)
Параметр Endianness формата : Big
Идентификатор кодека : 2000
Продолжительность : 1 ч. 42 м.
Вид битрейта : Постоянный
Битрейт : 448 Кбит/сек
Каналы : 6 каналов
Расположение каналов : Front: L C R, Side: L R, LFE
Частота : 48,0 КГц
Частота кадров : 31,250 кадров/сек (1536 spf)
Метод сжатия : С потерями
Размер потока : 329 Мбайт (22%)
Выравнивание : Соединение по промежуткам
Продолжительность промежутка : 64 мс. (1,53 видеокадра)
Время предзагрузки промежутка : 192 мс.
Заголовок : BD

Скриншоты

[Profile]  [PM] 
Display posts:    
Reply to topic

Current time is: 29-Sep 19:32

All times are UTC + 2



You cannot post new topics in this forum
You cannot reply to topics in this forum
You cannot edit your posts in this forum
You cannot delete your posts in this forum
You cannot vote in polls in this forum
You cannot attach files in this forum
You cannot download files in this forum