ПИТ И ЕГО ДРАКОН / Pete's Dragon ( Дэвид Лоури) [2016, Фэнтези, приключения, семейный , Blu-Ray Remux 1080p] [DD5.1] [Dub Rus, Englis + Subs Rus, ENG] [Лицензия]

Reply to topic
 
Author
Message

Враг Нароода ®

Gender: Unknown

Longevity: 6 years

Posts: 446

Reputation: 1 [+] [-]

Враг Нароода · Post 23-Nov-2016 18:40

[Quote] 

--ПИТ И ЕГО ДРАКОН / Pete's Dragon-- --Год выпуска: 2016
Выпущено: США , Walt Disney Productions
Жанр: Фэнтези, приключения, семейный
Продолжительность: 01:42:45
Озвучка 1: Дублированный - -Лицензия-Русский
Озвучка 2: Профессиональный многоголосый -Английский -Оригинал
Субтитры: Русские, английские
--IMDB --Режиссер:
Дэвид Лоури--В ролях: Брайс Даллас Ховард, Роберт Редфорд, Оакс Фигли, Уна Лоуренс, Уэс Бентли, Карл Урбан, Исайя Уитлок мл., Маркус Хендерсон, Аарон Джексон, Филип Грив--
В течение многих лет Мистер Мичем забавлял местных детишек сказочными историями о свирепом драконе, обитающим на севере, глубоко в лесах. Для его дочери Грейс все эти истории казались ничем иным как выдумкой, ровно до тех пор, пока она не встретила в лесу маленького мальчика по имени Пит. Пит уже долгое время живет в диком лесу, у него нет ни дома, ни семьи, зато есть замечательный друг — огромный зеленый дракон Эллиот. Грейс решает разгадать историю юного Пита, узнать всю правду о его семье и загадочном драконе, о котором ходит так много слухов и легенд.
-- --Качество :Blu-Ray Remux 1080p
Формат: MKV
Видео кодек: H264
Видео: 32,4Мбит/сек,1920х1080(16.9),в 23.976кадр/сек,AVC(High@L4,1)(CABAC/4 Ref Frames)
Аудио Кодек:AC3
Аудио #1:AC3 , 640 Kbps, 48.0 KHz, 6 ch- -Дублированный -Русский
Аудио #2: AC3, 640 Kbps, 48.0 KHz,6 ch - - English-Английский -Оригинал--

MediaInfo

Общее
Уникальный идентификатор : 204101796728707257332906522043023779504 (0x998C9381FE899BF2A8A51328BACE66B0)
Полное имя : C:\ПИРАТИЯ(PIRATIYA)\ПИТ И ЕГО ДРАКОН(Pete's Dragon)\PETE'S_DRAGON_2016_Rus_DUB_Eng_H264_DD5.1_N.B_Blu-Ray_Remux_1080p\PETE'S_DRAGON_2016_Rus_DUB_Eng_H264_DD5.1_N.B_Blu-Ray_Remux_1080p.mkv
Формат : Matroska
Версия формата : Version 4 / Version 2
Размер файла : 24,1 Гбайт
Продолжительность : 1 ч. 42 м.
Режим общего битрейта : Переменный
Общий поток : 33,6 Мбит/сек
Название фильма : PETE'S_DRAGON_2016_Rus_DUB_Eng_H264_DD5.1_N.B_Blu-Ray_Remux_1080p
Дата кодирования : UTC 2016-11-23 09:23:40
Программа кодирования : mkvmerge v9.5.0 ('Quiet Fire') 64bit
Библиотека кодирования : libebml v1.3.4 + libmatroska v1.4.5
Обложка : Yes
Attachments : cover.jpg
Видео
Идентификатор : 1
Формат : AVC
Формат/Информация : Advanced Video Codec
Профиль формата : High@L4.1
Параметр CABAC формата : Да
Параметр ReFrames формата : 4 кадра
Идентификатор кодека : V_MPEG4/ISO/AVC
Продолжительность : 1 ч. 42 м.
Вид битрейта : Переменный
Битрейт : 32,4 Мбит/сек
Максимальный битрейт : 35,0 Мбит/сек
Ширина : 1920 пикселей
Высота : 1080 пикселей
Соотношение сторон : 16:9
Режим частоты кадров : Постоянный
Частота кадров : 23,976 (24000/1001) кадра/сек
Цветовое пространство : YUV
Субдискретизация насыщенности : 4:2:0
Битовая глубина : 8 бит
Тип развёртки : Прогрессивная
Бит/(Пиксели*Кадры) : 0.651
Размер потока : 23,2 Гбайт (96%)
Заголовок : PETE'S_DRAGON_2016_Rus_DUB_Eng_H264_DD5.1_N.B_Blu-Ray_Remux_1080p
Язык : English
Default : Да
Forced : Нет
Аудио #1
Идентификатор : 8
Формат : AC-3
Формат/Информация : Audio Coding 3
Расширение режима : CM (complete main)
Параметр Endianness формата : Big
Идентификатор кодека : A_AC3
Продолжительность : 1 ч. 42 м.
Вид битрейта : Постоянный
Битрейт : 640 Кбит/сек
Каналы : 6 каналов
Расположение каналов : Front: L C R, Side: L R, LFE
Частота : 48,0 КГц
Частота кадров : 31,250 кадров/сек (1536 spf)
Битовая глубина : 16 бит
Метод сжатия : С потерями
Размер потока : 470 Мбайт (2%)
Заголовок : DUB @DD5.1 AC3, 640 Kbps, 48.0 KHz, 6 ch
Язык : Russian
Default : Да
Forced : Нет
Аудио #2
Идентификатор : 9
Формат : AC-3
Формат/Информация : Audio Coding 3
Расширение режима : CM (complete main)
Параметр Endianness формата : Big
Идентификатор кодека : A_AC3
Продолжительность : 1 ч. 42 м.
Вид битрейта : Постоянный
Битрейт : 640 Кбит/сек
Каналы : 6 каналов
Расположение каналов : Front: L C R, Side: L R, LFE
Частота : 48,0 КГц
Частота кадров : 31,250 кадров/сек (1536 spf)
Битовая глубина : 16 бит
Метод сжатия : С потерями
Размер потока : 470 Мбайт (2%)
Заголовок : Original @DD5.1 AC3 ,640 Kbps, 48.0 KHz, 6 ch
Язык : English
Default : Нет
Forced : Нет
Текст #1
Идентификатор : 2
Формат : UTF-8
Идентификатор кодека : S_TEXT/UTF8
Идентификатор кодека/Информация : UTF-8 Plain Text
Продолжительность : 1 ч. 22 м.
Битрейт : 0 бит/сек
Count of elements : 5
Размер потока : 213 байт (0%)
Заголовок : Russian Forced
Язык : Russian
Default : Да
Forced : Нет
Текст #2
Идентификатор : 3
Формат : UTF-8
Идентификатор кодека : S_TEXT/UTF8
Идентификатор кодека/Информация : UTF-8 Plain Text
Продолжительность : 1 ч. 35 м.
Битрейт : 48 бит/сек
Count of elements : 864
Размер потока : 34,4 Кбайт (0%)
Заголовок : Russian
Язык : Russian
Default : Нет
Forced : Нет
Текст #3
Идентификатор : 4
Формат : UTF-8
Идентификатор кодека : S_TEXT/UTF8
Идентификатор кодека/Информация : UTF-8 Plain Text
Продолжительность : 1 ч. 37 м.
Битрейт : 184 бит/сек
Count of elements : 2152
Размер потока : 132 Кбайт (0%)
Заголовок : Commentary
Язык : Russian
Default : Нет
Forced : Нет
Текст #4
Идентификатор : 5
Формат : UTF-8
Идентификатор кодека : S_TEXT/UTF8
Идентификатор кодека/Информация : UTF-8 Plain Text
Продолжительность : 1 ч. 39 м.
Битрейт : 37 бит/сек
Count of elements : 1030
Размер потока : 27,2 Кбайт (0%)
Заголовок : Original
Язык : English
Default : Нет
Forced : Нет
Текст #5
Идентификатор : 6
Формат : UTF-8
Идентификатор кодека : S_TEXT/UTF8
Идентификатор кодека/Информация : UTF-8 Plain Text
Продолжительность : 1 ч. 41 м.
Битрейт : 42 бит/сек
Count of elements : 1231
Размер потока : 31,4 Кбайт (0%)
Заголовок : SDH Original
Язык : English
Default : Нет
Forced : Нет
Текст #6
Идентификатор : 7
Формат : UTF-8
Идентификатор кодека : S_TEXT/UTF8
Идентификатор кодека/Информация : UTF-8 Plain Text
Продолжительность : 1 ч. 39 м.
Битрейт : 154 бит/сек
Count of elements : 2256
Размер потока : 113 Кбайт (0%)
Заголовок : Commentary
Язык : English
Default : Нет
Forced : Нет
--

Скриншоты

-- -- -- --Релиз от: Nikolai.Baranov & PIRATIYA -- -- -- --
[Profile]  [PM] 
Display posts:    
Reply to topic

Current time is: 21-Sep 04:44

All times are UTC + 2



You cannot post new topics in this forum
You cannot reply to topics in this forum
You cannot edit your posts in this forum
You cannot delete your posts in this forum
You cannot vote in polls in this forum
You cannot attach files in this forum
You cannot download files in this forum