Побуждение / Urge (Аарон Кауфман / Aaron Kaufman) [2016, США, триллер, WEB-DLRip-AVC] MVO + Original (eng) + Sub (eng)

Reply to topic
 
Author
Message

Satyr ®

Online

Gender: Unknown

Longevity: 11 years

Posts: 15401

Reputation: 55 [+] [-]

Satyr · Post 24-Nov-2016 15:50

[Quote] 

Побуждение
Urge
«Every high has its price»

Страна: США
Жанр: триллер
Год выпуска: 2016
Продолжительность: 01:30:38
Перевод: Любительский (многоголосый, закадровый) [Parovoz Production]
Субтитры: английские
Оригинальная аудиодорожка: английский
Режиссер: Аарон Кауфман / Aaron Kaufman
В ролях: Эшли Грин, Пирс Броснан, Алексис Нэп, Дэнни Мастерсон, Джастин Чэтвин, Элисон Ломан, Бар Пали, Ник Тун, Крис Гир, Джеймс ДеБелло, Марко Кака, Николя Фиоре
Описание:
Группа друзей, отдыхая на острове, решает попробовать новый наркотик, который лишит их способности контролировать свои порывы.
Автор рипа: stalkerok
Сэмпл
Качество видео: WEB-DLRip-AVC [WEB-DL / 1080p]
Формат видео: MKV
Видео: 1725 Кбит/сек, 904x488 (1.852), 23,976 кадр/сек, AVC
Аудио №1: русский, 192 Кбит/сек, 48 КГц, 16 бит, 2.0, AC3
Аудио №2: английский, 384 Кбит/сек, 48 КГц, 16 бит, 5.1, AC3
Навигация по главам: есть

MediaInfo

Общее
Уникальный идентификатор : 250521703486179411006126622335565454522 (0xBC78B99CA245DA9A9BB1D041FE3A5CBA)
Полное имя : M:\1WEB-DL\Urge 2016\Urge 2016.WEB-DLRip-AVC.MVO.1.45Gb.stalkerok.new-team.mkv
Формат : Matroska
Версия формата : Version 4 / Version 2
Размер файла : 1,46 Гбайт
Продолжительность : 1 ч. 30 м.
Общий поток : 2303 Кбит/сек
Название фильма : Urge (2016) (New-Team) (Rip by stalkerok)
Дата кодирования : UTC 2016-06-06 20:51:59
Программа кодирования : mkvmerge v8.6.1 ('Flying') 64bit
Библиотека кодирования : libebml v1.3.3 + libmatroska v1.4.4
Видео
Идентификатор : 1
Формат : AVC
Формат/Информация : Advanced Video Codec
Профиль формата : High@L4.1
Параметр CABAC формата : Да
Параметр ReFrames формата : 14 кадров
Идентификатор кодека : V_MPEG4/ISO/AVC
Продолжительность : 1 ч. 30 м.
Битрейт : 1725 Кбит/сек
Ширина : 904 пикселя
Высота : 488 пикселей
Соотношение сторон : 1,85:1
Режим частоты кадров : Постоянный
Частота кадров : 23,976 (24000/1001) кадра/сек
Цветовое пространство : YUV
Субдискретизация насыщенности : 4:2:0
Битовая глубина : 8 бит
Тип развёртки : Прогрессивная
Бит/(Пиксели*Кадры) : 0.163
Размер потока : 1,09 Гбайт (75%)
Заголовок : Urge (2016) (New-Team) (Rip by stalkerok)
Библиотека кодирования : x264 core 148 r2665kMod a01e339
Настройки программы : cabac=1 / ref=14 / deblock=1:-3:-2 / analyse=0x3:0x133 / me=umh / subme=10 / psy=1 / fade_compensate=0.00 / psy_rd=1.00:0.00 / mixed_ref=1 / me_range=32 / chroma_me=1 / trellis=2 / 8x8dct=1 / cqm=0 / deadzone=21,11 / fast_pskip=0 / chroma_qp_offset=-2 / threads=12 / lookahead_threads=3 / sliced_threads=0 / nr=0 / decimate=0 / interlaced=0 / bluray_compat=0 / constrained_intra=0 / fgo=0 / bframes=14 / b_pyramid=2 / b_adapt=2 / b_bias=0 / direct=3 / weightb=1 / open_gop=0 / weightp=2 / keyint=240 / keyint_min=23 / scenecut=40 / intra_refresh=0 / rc_lookahead=60 / rc=2pass / mbtree=0 / bitrate=1725 / ratetol=1.0 / qcomp=0.65 / qpmin=0 / qpmax=69 / qpstep=4 / cplxblur=20.0 / qblur=0.5 / vbv_maxrate=50000 / vbv_bufsize=62500 / nal_hrd=none / filler=0 / ip_ratio=1.40 / pb_ratio=1.30 / aq=1:0.80
Default : Да
Forced : Нет
Аудио #1
Идентификатор : 2
Формат : AC-3
Формат/Информация : Audio Coding 3
Расширение режима : CM (complete main)
Параметр Endianness формата : Big
Идентификатор кодека : A_AC3
Продолжительность : 1 ч. 30 м.
Вид битрейта : Постоянный
Битрейт : 192 Кбит/сек
Каналы : 2 канала
Расположение каналов : Front: L R
Частота : 48,0 КГц
Частота кадров : 31,250 кадров/сек (1536 spf)
Метод сжатия : С потерями
Размер потока : 124 Мбайт (8%)
Язык : Russian
Default : Да
Forced : Нет
Аудио #2
Идентификатор : 3
Формат : AC-3
Формат/Информация : Audio Coding 3
Расширение режима : CM (complete main)
Параметр Endianness формата : Big
Идентификатор кодека : A_AC3
Продолжительность : 1 ч. 30 м.
Вид битрейта : Постоянный
Битрейт : 384 Кбит/сек
Каналы : 6 каналов
Расположение каналов : Front: L C R, Side: L R, LFE
Частота : 48,0 КГц
Частота кадров : 31,250 кадров/сек (1536 spf)
Метод сжатия : С потерями
Размер потока : 249 Мбайт (17%)
Язык : English
Default : Нет
Forced : Нет
Текст
Идентификатор : 4
Формат : UTF-8
Идентификатор кодека : S_TEXT/UTF8
Идентификатор кодека/Информация : UTF-8 Plain Text
Продолжительность : 1 ч. 27 м.
Битрейт : 60 бит/сек
Count of elements : 1333
Размер потока : 38,7 Кбайт (0%)
Язык : English
Default : Нет
Forced : Нет
Меню
00:00:00.000 : en:1
00:08:04.000 : en:2
00:18:06.000 : en:3
00:29:25.000 : en:4
00:39:54.000 : en:5
00:49:23.000 : en:6
01:00:19.000 : en:7
01:09:45.000 : en:8
01:21:25.000 : en:9

Скриншоты

[Profile]  [PM] 
Display posts:    
Reply to topic

Current time is: 20-Sep 21:58

All times are UTC + 2



You cannot post new topics in this forum
You cannot reply to topics in this forum
You cannot edit your posts in this forum
You cannot delete your posts in this forum
You cannot vote in polls in this forum
You cannot attach files in this forum
You cannot download files in this forum