Дом странных детей Мисс Перегрин / Miss Peregrine\'s Home for Peculiar Children (Тим Бёртон / Tim Burton) [2016, США, Фэнтези, драма, приключения, семейный, HDTVRip] Dub (Line)

Reply to topic
 
Author
Message

Satyr ®

Gender: Unknown

Longevity: 11 years

Posts: 15401

Reputation: 55 [+] [-]

Satyr · Post 24-Nov-2016 19:55

[Quote] 

Дом странных детей Мисс Перегрин / Miss Peregrine's Home for Peculiar Children- Год выхода: 2016
Выпущено: США, Великобритания, Бельгия / 20th Century Fox Film Corporation
Жанр: фэнтези, драма, приключения, семейный
Продолжительность: 02:06:51
Перевод: Профессиональный (полное дублирование) Line
Субтитры: Корейские (вшитые)-Режиссер:
Тим Бёртон / Tim Burton-В ролях:
Ева Грин, Эйса Баттерфилд, Сэмюэл Л. Джексон, Джуди Денч, Руперт Эверетт, Эллисон Джэнни, Крис О`Дауд, Теренс Стэмп, Элла Пёрнелл, Финлэй МакМиллан, Лорен МакКрости, Хейден Килер-Стоун, Джорджия Пембертон, Майло Паркер, Раффиелла Чепмен, Пикси Дейвис-О фильме:
Детство Джейкоба прошло под рассказы дедушки о приюте для необычных детей. Среди его обитателей девочка, которая умела держать в руках огонь, девочка, чьи ноги не касались земли, невидимый мальчик и близнецы, умевшие общаться без слов. Когда дедушка умирает, 16-летний Джейкоб получает загадочное письмо и отправляется на остров, где вырос его дед. Там он находит детей, которых раньше видел только на фотографиях.-| IMDB | КиноПоиск | Сэмпл | Рекламы нет! | Рип - Dalemake-Качество: HDTVRip [Miss.Peregrines.Home.For.Peculiar.Children.2016.720p.KORSUB.HDRip.x264.AAC2.0-STUTTERSHIT]
Формат: AVI
Видео: 688x384 (1.79:1), 23.976 fps, XviD build 67 ~1443 kbps avg, 0.23 bit/pixel
Аудио: 44.1 kHz, AC3 Dolby Digital, 2/0 (L,R) ch, ~192 kbps-

Скриншоты

-

MediaInfo

Общее
Полное имя                               : D:\Dom_strannyh_detei_Miss_Peregrin_2016_HDTVRip_Line_by_Dalemake.avi
Формат                                   : AVI
Формат/Информация                        : Audio Video Interleave
Размер файла                             : 1,46 Гбайт
Продолжительность                        : 2 ч. 6 м.
Общий поток                              : 1645 Кбит/сек
Программа кодирования                    : VirtualDubMod 1.5.10.3 | www.virtualdub-fr.org || (build 2550/release)
Библиотека кодирования                   : VirtualDubMod build 2550/release
Видео
Идентификатор                            : 0
Формат                                   : MPEG-4 Visual
Профиль формата                          : Advanced Simple@L5
Параметр BVOP формата                    : 1
Параметр QPel формата                    : Нет
Параметр GMC формата                     : Без точки перехода
Параметр матрицы формата                 : Выборочная
Идентификатор кодека                     : XVID
Идентификатор кодека/Подсказка           : XviD
Продолжительность                        : 2 ч. 6 м.
Битрейт                                  : 1444 Кбит/сек
Ширина                                   : 688 пикселей
Высота                                   : 384 пикселя
Соотношение сторон                       : 16:9
Частота кадров                           : 23,976 кадра/сек
Цветовое пространство                    : YUV
Субдискретизация насыщенности            : 4:2:0
Битовая глубина                          : 8 бит
Тип развёртки                            : Прогрессивная
Метод сжатия                             : С потерями
Бит/(Пиксели*Кадры)                      : 0.228
Размер потока                            : 1,28 Гбайт (88%)
Библиотека кодирования                   : XviD 67
Аудио
Идентификатор                            : 1
Формат                                   : AC-3
Формат/Информация                        : Audio Coding 3
Расширение режима                        : CM (complete main)
Параметр Endianness формата              : Big
Идентификатор кодека                     : 2000
Продолжительность                        : 2 ч. 6 м.
Вид битрейта                             : Постоянный
Битрейт                                  : 192 Кбит/сек
Каналы                                   : 2 канала
Расположение каналов                     : Front: L R
Частота                                  : 44,1 КГц
Битовая глубина                          : 16 бит
Метод сжатия                             : С потерями
Размер потока                            : 174 Мбайт (12%)
Выравнивание                             : Разделение по промежуткам
Продолжительность промежутка             : 42  мс. (1,00 видеокадр)
Время предзагрузки промежутка            : 500  мс.
-
[Profile]  [PM] 
Display posts:    
Reply to topic

Current time is: 18-Sep 15:40

All times are UTC + 2



You cannot post new topics in this forum
You cannot reply to topics in this forum
You cannot edit your posts in this forum
You cannot delete your posts in this forum
You cannot vote in polls in this forum
You cannot attach files in this forum
You cannot download files in this forum