Потерянные: Книга теней / Nowhere Boys: The Book of Shadows (Дэвид Цезар / David Caesar) [2016, Австралия, Фантастика, WEB-DLRip] MVO + Sub (rus, eng)

Reply to topic
 
Author
Message

Satyr ®

Gender: Unknown

Longevity: 11 years

Posts: 15401

Reputation: 55 [+] [-]

Satyr · Post 26-Nov-2016 12:55

[Quote] 

Потерянные: Книга теней / Nowhere Boys: The Book of Shadows
Страна: Австралия
Жанр: Фантастика
Год выпуска: 2016
Продолжительность: 01:21:15-Перевод: Любительский (многоголосый закадровый) - [Релиз-группa "Ананас"]
Cубтитры: Russian, English (внешние)-Режиссер: Дэвид Цезар / David Caesar-В ролях: Дуги Болдуин, Джоэл Лок, Рахарт Адамс, Мэтт Тестро, Дарси МакДональд, Энгаури Райс, Шон Риз-Уэмисс, Мичела Банас, Виктория Тейн, Тамала Шелтон-Описание: Феликс, случайно обнаружил древний манускрипт. Молодой человек уже сталкивался с магией и ощущал, что книга опасна, но любопытство взяло верх. Начав её читать, Феликс сам того не желая, открыл дорогу в наш мир демону, который был в древние времена изгнан в другое измерение. Когда юноша понял, что натворил, было уже поздно, зло обрело свободу. Теперь он вынужден обратиться за помощью к своим старым товарищам, потому что без них победить демона нельзя. Четверка снова собирается вместе. Ребят ждёт тяжёлое испытание.-Сэмпл: http://multi-up.com/1128231-Качество видео: WEB-DLRip
Формат видео: AVI
Видео: 720x304 (16:9), 25.000 fps, XviD build 67, 2347 Kbps, 0.32 bits/pixel
Аудио: 48.0 kHz, AC3 Dolby Digital, 2 ch, 192 Kbps
Формат субтитров: softsub (SRT)-Релиз от: -

MediaInfo

General
Complete name : Downloads\Nowhere Boys The Book of Shadows (2016) WEB-DLRip
Format : AVI
Format/Info : Audio Video Interleave
Format profile : OpenDML
File size : 1.45 GiB
Duration : 1h 21mn
Overall bit rate : 2 551 Kbps
Writing application : XviD4PSP 6.0 / 54.29.105
Video #0
ID : 0
Format : xvid
Codec ID : xvid
Duration : 1h 21mn
Bit rate : 2 347 Kbps
Width : 720 pixels
Height : 400 pixels
Display aspect ratio : 16:9
Frame rate : 25.000 fps
Bits/(Pixel*Frame) : 0.326
Stream size : 1.33 GiB (92%)
Audio #1
ID : 1
Format : AC-3
Format/Info : Audio Coding 3
Mode extension : CM (complete main)
Format settings, Endianness : Big
Codec ID : 2000
Duration : 1h 21mn
Bit rate mode : Constant
Bit rate : 192 Kbps
Channel(s) : 2 channels
Channel positions : Front: L R
Sampling rate : 48.0 KHz
Bit depth : 16 bits
Compression mode : Lossy
Stream size : 112 MiB (8%)
Alignment : Aligned on interleaves
Interleave, duration : 32 ms (0.80 video frame)

Скриншот c названием фильма

Скриншоты

[Profile]  [PM] 
Display posts:    
Reply to topic

Current time is: 21-Sep 05:28

All times are UTC + 2



You cannot post new topics in this forum
You cannot reply to topics in this forum
You cannot edit your posts in this forum
You cannot delete your posts in this forum
You cannot vote in polls in this forum
You cannot attach files in this forum
You cannot download files in this forum