Очень плохие мамочки / Bad Moms (Джон Лукас / Jon Lucas, Скотт Мур / Scott Moore) [2016, США, комедия, BDRip] Dub + Original + Sub (Eng Full, Eng SDH)

Reply to topic
 
Author
Message

Satyr ®

Online

Gender: Unknown

Longevity: 11 years

Posts: 15401

Reputation: 55 [+] [-]

Satyr · Post 29-Nov-2016 19:00

[Quote] 

Очень плохие мамочки / Bad Moms- Год выпуска: 2016
Страна: США / Block Entertainment
Жанр: комедия
Продолжительность: 01:40:57
Перевод: Профессиональный (дублированный)
+ Оригинальная звуковая дорожка
Cубтитры: аглийские (полные, полные sdh) отдельно-Режиссер: Джон Лукас / Jon Lucas, Скотт Мур / Scott Moore-В ролях: Мила Кунис, Кэтрин Хан, Кристен Белл, Кристина Эпплгейт, Джада Пинкетт Смит, Энни Мумоло, Уна Лоуренс, Эмджей Энтони, Дэвид Уолтон, Кларк Дьюк.-Описание: Идеальная мать, прекрасная жена, хорошая домохозяйка с успешной карьерой… Но стоит немного расслабиться, как тебе сразу напоминают о твоих обязанностях. Почему только мужчины имеют право развлекаться? Сколько же можно это терпеть?! Пора команде отчаянных мамочек пуститься во все тяжкие.-Релиз от:
Автор рипа: Seven-Качество видео: BDRip (источник: BAD_MOMS_REMUX_HDCLUB)
Формат видео: AVI | Sample
Видео: 720x304 (2.37:1), 23.976 fps, XviD build 73 ~2183 kbps avg, 0.42 bit/pixel
Аудио 1: 48 kHz, AC3 Dolby Digital, 3/2 (L,C,R,l,r) + LFE ch, ~384.00 kbps avg | Rus iTunes
Аудио 2: 48 kHz, AC3 Dolby Digital, 3/2 (L,C,R,l,r) + LFE ch, ~448.00 kbps avg | Eng Original

Инфо

Формат : AVI
Формат/Информация : Audio Video Interleave
Профиль формата : OpenDML
Размер файла : 2,14 Гбайт
Продолжительность : 1 ч. 40 м.
Общий поток : 3033 Кбит/сек
Программа кодирования : VirtualDubMod 1.5.10.2 (build 2540/release)
Библиотека кодирования : VirtualDubMod build 2540/release
Видео
Идентификатор : 0
Формат : MPEG-4 Visual
Профиль формата : Advanced Simple@L5
Параметр BVOP формата : 1
Параметр QPel формата : Нет
Параметр GMC формата : Без точки перехода
Параметр матрицы формата : Выборочная
Идентификатор кодека : XVID
Идентификатор кодека/Подсказка : XviD
Продолжительность : 1 ч. 40 м.
Битрейт : 2183 Кбит/сек
Ширина : 720 пикселей
Высота : 304 пикселя
Соотношение сторон : 2,35:1
Частота кадров : 23,976 (23976/1000) кадра/сек
Цветовое пространство : YUV
Субдискретизация насыщенности : 4:2:0
Битовая глубина : 8 бит
Тип развёртки : Прогрессивная
Метод сжатия : С потерями
Бит/(Пиксели*Кадры) : 0.416
Размер потока : 1,54 Гбайт (72%)
Библиотека кодирования : XviD 73
Аудио #1
Идентификатор : 1
Формат : AC-3
Формат/Информация : Audio Coding 3
Расширение режима : CM (complete main)
Параметр Endianness формата : Big
Идентификатор кодека : 2000
Продолжительность : 1 ч. 40 м.
Вид битрейта : Постоянный
Битрейт : 384 Кбит/сек
Каналы : 6 каналов
Расположение каналов : Front: L C R, Side: L R, LFE
Частота : 48,0 КГц
Частота кадров : 31,250 кадров/сек (1536 spf)
Метод сжатия : С потерями
Размер потока : 277 Мбайт (13%)
Выравнивание : Разделение по промежуткам
Продолжительность промежутка : 42 мс. (1,00 видеокадр)
Время предзагрузки промежутка : 500 мс.
Аудио #2
Идентификатор : 2
Формат : AC-3
Формат/Информация : Audio Coding 3
Расширение режима : CM (complete main)
Параметр Endianness формата : Big
Идентификатор кодека : 2000
Продолжительность : 1 ч. 40 м.
Вид битрейта : Постоянный
Битрейт : 448 Кбит/сек
Каналы : 6 каналов
Расположение каналов : Front: L C R, Side: L R, LFE
Частота : 48,0 КГц
Частота кадров : 31,250 кадров/сек (1536 spf)
Метод сжатия : С потерями
Размер потока : 323 Мбайт (15%)
Выравнивание : Разделение по промежуткам
Продолжительность промежутка : 42 мс. (1,00 видеокадр)
Время предзагрузки промежутка : 500 мс.

Скриншоты


[Profile]  [PM] 
Display posts:    
Reply to topic

Current time is: 26-Sep 03:10

All times are UTC + 2



You cannot post new topics in this forum
You cannot reply to topics in this forum
You cannot edit your posts in this forum
You cannot delete your posts in this forum
You cannot vote in polls in this forum
You cannot attach files in this forum
You cannot download files in this forum