Грешники и праведники / Outlaws and Angels (ДжейТи Мольнер / JT Mollner) [2016, США, драма, вестерн, HDRip] MVO

Reply to topic
 
Author
Message

Satyr ®

Gender: Unknown

Longevity: 15 years

Posts: 21964

Reputation: 56 [+] [-]

Satyr · Post 30-Nov-2016 11:25

[Quote] 

Грешники и праведники / Outlaws and Angels- Страна: США
Жанр: драма, вестерн
Год выпуска: 2016
Продолжительность: 01:59:36
Перевод: Любительский (многоголосый закадровый)
Cубтитры: нет
Режиссер: ДжейТи Мольнер / JT Mollner
В ролях: Чад Майкл Мюррэй, Франческа Фишер-Иствуд, Тери Поло, Фрэнсис Фишер, Люк Уилсон, Бен Браудер, Мэдисен Бити, Стивен Майкл Квезада
Описание: Удирая от погони, шайка преступников, забирается в дом ничего не подозревающего семейства, чтобы укрыться на ночь. Появление непрошенных гостей влечёт за собой необратимые последствия для всех членов семьи...
Сэмпл: http://sendfile.su/1286418
Качество видео: HDRip
Формат видео: AVI
Видео: 1671 Кбит/сек 720 x 288 (2.500) 23.976 fps
Аудио: AC-3 384 Кбит/сек 2 канала, 48,0 КГц
Аудио 2: AC-3 384 Кбит/сек 6 каналов, 48,0 КГц

MediaInfo

Общее
Полное имя : F:\Грешники и праведники - 2016 HDRip.avi
Формат : AVI
Формат/Информация : Audio Video Interleave
Профиль формата : OpenDML
Размер файла : 2,05 Гбайт
Продолжительность : 1 ч. 59 м.
Общий поток : 2457 Кбит/сек
Программа кодирования : VirtualDubMod 1.5.10.2 (build 2540/release)
Библиотека кодирования : VirtualDubMod build 2540/release
Видео
Идентификатор : 0
Формат : MPEG-4 Visual
Профиль формата : Advanced Simple@L5
Параметр BVOP формата : 2
Параметр QPel формата : Нет
Параметр GMC формата : Без точки перехода
Параметр матрицы формата : Default (H.263)
Режим смешивания : Сжатый битовый поток
Идентификатор кодека : XVID
Идентификатор кодека/Подсказка : XviD
Продолжительность : 1 ч. 59 м.
Битрейт : 1671 Кбит/сек
Ширина : 720 пикселей
Высота : 288 пикселей
Соотношение сторон : 2,500
Частота кадров : 23,976 кадра/сек
Цветовое пространство : YUV
Субдискретизация насыщенности : 4:2:0
Битовая глубина : 8 бит
Тип развёртки : Прогрессивная
Метод сжатия : С потерями
Бит/(Пиксели*Кадры) : 0.336
Размер потока : 1,40 Гбайт (68%)
Библиотека кодирования : XviD 73
Аудио #1
Идентификатор : 1
Формат : AC-3
Формат/Информация : Audio Coding 3
Расширение режима : CM (complete main)
Параметр Endianness формата : Big
Идентификатор кодека : 2000
Продолжительность : 1 ч. 59 м.
Вид битрейта : Постоянный
Битрейт : 384 Кбит/сек
Каналы : 2 канала
Расположение каналов : Front: L R
Частота : 48,0 КГц
Битовая глубина : 16 бит
Метод сжатия : С потерями
Размер потока : 329 Мбайт (16%)
Выравнивание : Разделение по промежуткам
Продолжительность промежутка : 42 мс. (1,00 видеокадр)
Время предзагрузки промежутка : 500 мс.
Аудио #2
Идентификатор : 2
Формат : AC-3
Формат/Информация : Audio Coding 3
Расширение режима : CM (complete main)
Параметр Endianness формата : Big
Идентификатор кодека : 2000
Продолжительность : 1 ч. 59 м.
Вид битрейта : Постоянный
Битрейт : 384 Кбит/сек
Каналы : 6 каналов
Расположение каналов : Front: L C R, Side: L R, LFE
Частота : 48,0 КГц
Битовая глубина : 16 бит
Метод сжатия : С потерями
Размер потока : 329 Мбайт (16%)
Выравнивание : Разделение по промежуткам
Продолжительность промежутка : 42 мс. (1,00 видеокадр)
Время предзагрузки промежутка : 500 мс.

Скриншот c названием фильма

Скриншоты

[Profile]  [PM] 
Display posts:    
Reply to topic

Current time is: 24-Jun 19:50

All times are UTC + 2



You cannot post new topics in this forum
You cannot reply to topics in this forum
You cannot edit your posts in this forum
You cannot delete your posts in this forum
You cannot vote in polls in this forum
You cannot attach files in this forum
You cannot download files in this forum