Отряд самоубийц / Suicide Squad (Дэвид Эйр / David Ayer) [2016, США, фантастика, фэнтези, боевик, BDRip-AVC] [Расширенная версия / Extended cut] Dub + Original + Sub (rus, eng)

Reply to topic
 
Author
Message

Satyr ®

Gender: Unknown

Longevity: 11 years

Posts: 15401

Reputation: 55 [+] [-]

Satyr · Post 01-Dec-2016 16:15

[Quote] 

Отряд самоубийц / Suicide SquadРасширенная версия / Extended cut«Justice has a bad side»- Страна: США
Жанр: фантастика, фэнтези, боевик, приключения
Год выпуска: 2016
Продолжительность: 02:14:33
Перевод: Профессиональный (дублированный) + одноголосый закадровый А.Матвеев (на эпизоды расширенной версии)
Оригинальная аудиодорожка: английский
Субтитры: русские (форс., полные) английские (полные)
Навигация по главам: есть
Режиссер: Дэвид Эйр / David Ayer
В ролях: Марго Робби (Harley Quinn), Уилл Смит (Deadshot), Джаред Лето (The Joker), Джай Кортни (George Harkness / Captain Boomerang), Кара Делевинь (June Moone / Enchantress), Джей Эрнандес (Diablo), Юэль Киннаман (Rick Flag), Виола Дэвис (Amanda Waller), Адевале Акинойе-Агбаже (Killer Croc), Скотт Иствуд (Lieutenant GQ Edwards), Джейм Фицсаймонс (Sergeant Ames Bravo 14), Айк Баринхолц (Griggs)
Описание: Правительство решает дать команде суперзлодеев шанс на искупление. Подвох в том, что их отправляют на миссию, где они, вероятнее всего, погибнут.- -Качество: BDRip-AVC (исходник - BDRemux|SUICIDE_SQUAD_EXTENDED_REMUX_HDCLUB)
Формат видео: MKV
Видео: x264, 1152x480 (2.40:1) 23,976 fps, ~1966 kbps, 0.148 bit/pixel
Аудио 1: 48 kHz, AC3 Dolby Digital, 3/2 (L,C,R,l,r) + LFE ch, ~448 kbps [русский]
Аудио 2: 48 kHz, AC3 Dolby Digital, 3/2 (L,C,R,l,r) + LFE ch, ~448 kbps [английский]
Формат субтитров: softsub (SRT)-

MediaInfo | x264 log

Format : Matroska
Format version : Version 4 / Version 2
File size : 2.74 GiB
Duration : 2h 14 min
Overall bit rate : 2 920 kb/s
Movie name : Отряд самоубийц / Suicide Squad (2016) [Extended] :: AFM ::
Encoded date : UTC 2016-11-30 14:58:12
Writing application : mkvmerge v8.3.0 ('Over the Horizon') 32bit
Writing library : libebml v1.3.1 + libmatroska v1.4.2
Video
ID : 1
Format : AVC
Format/Info : Advanced Video Codec
Format profile : High@L4.1
Format settings, CABAC : Yes
Format settings, ReFrames : 11 frames
Codec ID : V_MPEG4/ISO/AVC
Duration : 2h 14 min
Bit rate : 1 966 kb/s
Width : 1 152 pixels
Height : 480 pixels
Display aspect ratio : 2.40:1
Frame rate mode : Constant
Frame rate : 23.976 (24000/1001) FPS
Color space : YUV
Chroma subsampling : 4:2:0
Bit depth : 8 bits
Scan type : Progressive
Bits/(Pixel*Frame) : 0.148
Stream size : 1.85 GiB (67%)
Title : BDRip by AFM
Writing library : x264 core 148 r2721+55 e19946b t_mod_Custom [8-bit@all X86_64]
Encoding settings : cabac=1 / ref=11 / deblock=1:-3:-2 / analyse=0x3:0x113 / me=umh / subme=10 / psy=1 / fade_compensate=0.00 / psy_rd=1.00:0.00 / mixed_ref=1 / me_range=32 / chroma_me=1 / trellis=2 / 8x8dct=1 / cqm=0 / deadzone=21,11 / fast_pskip=0 / chroma_qp_offset=-2 / threads=6 / lookahead_threads=1 / sliced_threads=0 / nr=0 / decimate=1 / interlaced=0 / bluray_compat=0 / constrained_intra=0 / fgo=0 / bframes=12 / b_pyramid=2 / b_adapt=2 / b_bias=0 / direct=1 / weightb=1 / open_gop=0 / weightp=2 / keyint=240 / keyint_min=23 / scenecut=40 / intra_refresh=0 / rc_lookahead=40 / rc=crf / mbtree=0 / crf=18.8800 / qcomp=0.65 / qpmin=0:0:0 / qpmax=69:69:69 / qpstep=4 / vbv_maxrate=50000 / vbv_bufsize=62500 / crf_max=0.0 / nal_hrd=none / filler=0 / ip_ratio=1.35 / pb_ratio=1.28 / aq=3:0.80 / aq-sensitivity=10.00 / aq-factor=1.00:1.00:1.00 / aq2=0 / aq3=0
Language : English
Default : Yes
Forced : No
Audio #1
ID : 2
Format : AC-3
Format/Info : Audio Coding 3
Mode extension : CM (complete main)
Format settings, Endianness : Big
Codec ID : A_AC3
Duration : 2h 14 min
Bit rate mode : Constant
Bit rate : 448 kb/s
Channel(s) : 6 channels
Channel positions : Front: L C R, Side: L R, LFE
Sampling rate : 48.0 kHz
Frame rate : 31.250 FPS (1536 spf)
Compression mode : Lossy
Stream size : 431 MiB (15%)
Title : Dub+, AC3 5.1 ~448 kbps
Language : Russian
Default : Yes
Forced : No
Audio #2
ID : 3
Format : AC-3
Format/Info : Audio Coding 3
Mode extension : CM (complete main)
Format settings, Endianness : Big
Codec ID : A_AC3
Duration : 2h 14 min
Bit rate mode : Constant
Bit rate : 448 kb/s
Channel(s) : 6 channels
Channel positions : Front: L C R, Side: L R, LFE
Sampling rate : 48.0 kHz
Frame rate : 31.250 FPS (1536 spf)
Compression mode : Lossy
Stream size : 431 MiB (15%)
Title : Original, AC3 5.1 ~448 kbps
Language : English
Default : No
Forced : No
Text #1
ID : 4
Format : UTF-8
Codec ID : S_TEXT/UTF8
Codec ID/Info : UTF-8 Plain Text
Title : forced
Language : Russian
Default : Yes
Forced : No
Text #2
ID : 5
Format : UTF-8
Codec ID : S_TEXT/UTF8
Codec ID/Info : UTF-8 Plain Text
Language : Russian
Default : No
Forced : No
Text #3
ID : 6
Format : UTF-8
Codec ID : S_TEXT/UTF8
Codec ID/Info : UTF-8 Plain Text
Language : English
Default : No
Forced : No
Menu
00:00:00.000 : en:00:00:00.000
00:09:08.506 : en:00:09:08.506
00:20:22.972 : en:00:20:22.972
00:31:14.706 : en:00:31:14.706
00:41:04.879 : en:00:41:04.879
00:52:21.805 : en:00:52:21.805
01:04:48.843 : en:01:04:48.843
01:21:12.743 : en:01:21:12.743
01:32:11.943 : en:01:32:11.943
01:42:57.671 : en:01:42:57.671
01:50:58.652 : en:01:50:58.652
02:04:04.812 : en:02:04:04.812

x264

x264 [info]: started at Wed Nov 30 10:41:03 2016
x264 [info]: frame I:1754 Avg QP:15.96 size: 51261
x264 [info]: frame P:38801 Avg QP:17.59 size: 22446
x264 [info]: frame B:153000 Avg QP:20.66 size: 7054
x264 [info]: consecutive B-frames: 2.2% 1.9% 5.2% 15.2% 18.0% 39.0% 8.2% 2.5% 2.4% 1.4% 1.4% 0.9% 2.0%
x264 [info]: mb I I16..4: 5.6% 77.5% 16.9%
x264 [info]: mb P I16..4: 1.1% 11.1% 1.7% P16..4: 40.5% 29.8% 14.2% 0.0% 0.0% skip: 1.8%
x264 [info]: mb B I16..4: 0.0% 0.6% 0.1% B16..8: 46.0% 11.6% 2.5% direct: 4.3% skip:34.8% L0:45.5% L1:47.2% BI: 7.2%
x264 [info]: 8x8 transform intra:79.0% inter:67.8%
x264 [info]: coded y,uvDC,uvAC intra: 88.7% 79.0% 53.4% inter: 21.0% 15.5% 1.6%
x264 [info]: i16 v,h,dc,p: 12% 11% 11% 65%
x264 [info]: i8 v,h,dc,ddl,ddr,vr,hd,vl,hu: 8% 7% 4% 11% 16% 14% 15% 12% 13%
x264 [info]: i4 v,h,dc,ddl,ddr,vr,hd,vl,hu: 6% 5% 2% 12% 17% 15% 15% 12% 14%
x264 [info]: i8c dc,h,v,p: 41% 25% 19% 16%
x264 [info]: Weighted P-Frames: Y:7.6% UV:5.2%
x264 [info]: ref P L0: 46.1% 8.0% 17.1% 7.4% 5.8% 4.3% 3.7% 2.2% 2.0% 1.7% 1.7% 0.2% 0.0%
x264 [info]: ref B L0: 69.1% 13.0% 6.9% 3.4% 2.5% 1.9% 1.5% 0.9% 0.6% 0.3%
x264 [info]: ref B L1: 92.4% 7.6%
x264 [info]: kb/s:2021.63

Скриншоты

с названием

[Profile]  [PM] 
Display posts:    
Reply to topic

Current time is: 18-Sep 15:01

All times are UTC + 2



You cannot post new topics in this forum
You cannot reply to topics in this forum
You cannot edit your posts in this forum
You cannot delete your posts in this forum
You cannot vote in polls in this forum
You cannot attach files in this forum
You cannot download files in this forum