Отряд самоубийц / Suicide Squad (Дэвид Эйр / David Ayer) [2016, США, фантастика, фэнтези, боевик, приключения, BDRip-AVC] [Расширенная версия / Extended Cut] Dub

Reply to topic
 
Author
Message

Satyr ®

Online

Gender: Unknown

Longevity: 11 years

Posts: 15401

Reputation: 55 [+] [-]

Satyr · Post 02-Dec-2016 12:40

[Quote] 

Отряд самоубийц / Suicide Squad- Страна: США | DC Comics, Warner Bros. Pictures
Жанр: фантастика, фэнтези, боевик, приключения
Год выпуска: 2016
Продолжительность: 02:14:32
Перевод: Профессиональный (дублированный) + А.Матвеев на расширенные места
Cубтитры: Русские, английские
Оригинальная аудиодорожка: английский
Режиссер: Дэвид Эйр / David Ayer
В ролях: Марго Робби, Уилл Смит, Джаред Лето, Джай Кортни, Кара Делевинь, Джей Эрнандес, Юэль Киннаман, Виола Дэвис
Описание: Правительство решает дать команде суперзлодеев шанс на искупление. Подвох в том, что их отправляют на миссию, где они, вероятнее всего, погибнут.
Сэмпл: http://sendfile.su/1286857
Качество видео: BDRip-AVC (исходник - Suicide Squad (2016) [EXTENDED] 1080p BD-Remux HDClub)
Формат видео: MKV
Видео: x264, 1072x446 (2.40:1) 23,976 fps, ~1870 kbps, 0,163 bit/pixel
Аудио 1: 48 kHz, AC3 Dolby Digital, 3/2 (L,C,R,l,r) + LFE ch, ~448 kbps [Дубляж + А.Матвеев]
Формат субтитров: softsub (SRT)

MediaInfo

General
Unique ID : 194409768334943570924229504511730385442 (0x9241F59D51F6D37DB91EA2C9CC3A0222)
Format : Matroska
Format version : Version 4 / Version 2
File size : 2.18 GiB
Duration : 2h 14mn
Overall bit rate : 2 320 Kbps
Encoded date : UTC 2016-12-01 04:59:26
Writing application : mkvmerge v9.6.0 ('Slave To Your Mind') 64bit
Writing library : libebml v1.3.4 + libmatroska v1.4.5
Video #1
ID : 1
Format : AVC
Format/Info : Advanced Video Codec
Format profile : High@L4.1
Format settings, CABAC : Yes
Format settings, ReFrames : 11 frames
Codec ID : V_MPEG4/ISO/AVC
Duration : 2h 14mn
Bit rate : 1 870 Kbps
Width : 1 072 pixels
Height : 446 pixels
Display aspect ratio : 2.40:1
Frame rate mode : Constant
Frame rate : 23.976 (24000/1001) fps
Color space : YUV
Chroma subsampling : 4:2:0
Bit depth : 8 bits
Scan type : Progressive
Bits/(Pixel*Frame) : 0.163
Stream size : 1.76 GiB (81%)
Writing library : x264 core 146 r2538 121396c
Encoding settings : cabac=1 / ref=11 / deblock=1:-3:-2 / analyse=0x3:0x113 / me=umh / subme=10 / psy=1 / psy_rd=1.00:0.00 / mixed_ref=1 / me_range=32 / chroma_me=1 / trellis=2 / 8x8dct=1 / cqm=0 / deadzone=21,11 / fast_pskip=1 / chroma_qp_offset=-2 / threads=6 / lookahead_threads=1 / sliced_threads=0 / nr=0 / decimate=1 / interlaced=0 / bluray_compat=0 / constrained_intra=0 / bframes=12 / b_pyramid=2 / b_adapt=2 / b_bias=0 / direct=1 / weightb=1 / open_gop=0 / weightp=2 / keyint=250 / keyint_min=23 / scenecut=40 / intra_refresh=0 / rc_lookahead=50 / rc=2pass / mbtree=1 / bitrate=1870 / ratetol=1.0 / qcomp=0.60 / qpmin=0 / qpmax=69 / qpstep=4 / cplxblur=20.0 / qblur=0.5 / ip_ratio=1.40 / aq=3:1.00
Language : English
Default : Yes
Forced : No
Audio #2
ID : 2
Format : AC-3
Format/Info : Audio Coding 3
Mode extension : CM (complete main)
Format settings, Endianness : Big
Codec ID : A_AC3
Duration : 2h 14mn
Bit rate mode : Constant
Bit rate : 448 Kbps
Channel(s) : 6 channels
Channel positions : Front: L C R, Side: L R, LFE
Sampling rate : 48.0 KHz
Frame rate : 31.250 fps (1536 spf)
Compression mode : Lossy
Stream size : 431 MiB (19%)
Title : Дубляж + А.Матвеев
Language : Russian
Default : Yes
Forced : No
Text #3
ID : 3
Format : UTF-8
Codec ID : S_TEXT/UTF8
Codec ID/Info : UTF-8 Plain Text
Duration : 2h 5mn
Bit rate : 7 bps
Count of elements : 69
Stream size : 7.07 KiB (0%)
Title : Forced [Matveev]
Language : Russian
Default : Yes
Forced : No
Text #4
ID : 4
Format : UTF-8
Codec ID : S_TEXT/UTF8
Codec ID/Info : UTF-8 Plain Text
Duration : 2h 13mn
Bit rate : 72 bps
Count of elements : 1570
Stream size : 71.4 KiB (0%)
Title : Full [iTunes]
Language : Russian
Default : No
Forced : No
Text #5
ID : 5
Format : UTF-8
Codec ID : S_TEXT/UTF8
Codec ID/Info : UTF-8 Plain Text
Duration : 2h 7mn
Bit rate : 47 bps
Count of elements : 1619
Stream size : 44.6 KiB (0%)
Title : Full
Language : English
Default : No
Forced : No

лог

raw [info]: 1072x446p 1:1 @ 24000/1001 fps (cfr)
x264 [info]: using SAR=1/1
x264 [info]: using cpu capabilities: MMX2 SSE2Fast SSSE3 SSE4.2 AVX XOP FMA4 FMA3 LZCNT BMI1
x264 [info]: profile High, level 4.1
x264 [info]: frame I:1685 Avg QP:13.94 size: 66785
x264 [info]: frame P:42743 Avg QP:17.86 size: 20170
x264 [info]: frame B:149128 Avg QP:20.51 size: 6118
x264 [info]: consecutive B-frames: 2.8% 4.1% 7.6% 18.7% 16.6% 32.9% 7.5% 2.4% 2.3% 1.4% 1.3% 0.9% 1.5%
x264 [info]: mb I I16..4: 5.9% 72.8% 21.4%
x264 [info]: mb P I16..4: 1.5% 9.3% 1.7% P16..4: 42.0% 26.8% 14.1% 0.0% 0.0% skip: 4.6%
x264 [info]: mb B I16..4: 0.1% 0.7% 0.2% B16..8: 45.6% 11.8% 2.6% direct: 4.3% skip:34.9% L0:45.1% L1:47.7% BI: 7.2%
x264 [info]: 8x8 transform intra:74.3% inter:66.0%
x264 [info]: coded y,uvDC,uvAC intra: 84.1% 76.1% 49.7% inter: 20.6% 15.2% 2.2%
x264 [info]: i16 v,h,dc,p: 15% 13% 10% 62%
x264 [info]: i8 v,h,dc,ddl,ddr,vr,hd,vl,hu: 9% 7% 4% 11% 16% 14% 15% 12% 13%
x264 [info]: i4 v,h,dc,ddl,ddr,vr,hd,vl,hu: 7% 6% 3% 12% 17% 14% 15% 12% 14%
x264 [info]: i8c dc,h,v,p: 41% 25% 19% 16%
x264 [info]: Weighted P-Frames: Y:6.5% UV:4.6%
x264 [info]: ref P L0: 45.8% 8.3% 17.3% 7.4% 6.0% 4.2% 3.5% 2.1% 1.9% 1.6% 1.6% 0.4% 0.0%
x264 [info]: ref B L0: 68.3% 13.5% 6.7% 3.4% 3.2% 1.8% 1.5% 0.9% 0.5% 0.2%
x264 [info]: ref B L1: 90.4% 9.6%
x264 [info]: kb/s:1869.98
x264 [total]: encoded 193556 frames, 8.04 fps, 1869.98 kb/s

Скриншоты


[Profile]  [PM] 
Display posts:    
Reply to topic

Current time is: 24-Sep 02:33

All times are UTC + 2



You cannot post new topics in this forum
You cannot reply to topics in this forum
You cannot edit your posts in this forum
You cannot delete your posts in this forum
You cannot vote in polls in this forum
You cannot attach files in this forum
You cannot download files in this forum