Сила воли / Race (Стивен Хопкинс / Stephen Hopkins) [2016, Канада, Германия, драма, биография, спорт, BDRip-AVC] Dub + Original

Reply to topic
 
Author
Message

Satyr ®

Online

Gender: Unknown

Longevity: 11 years

Posts: 15401

Reputation: 55 [+] [-]

Satyr · Post 04-Dec-2016 13:45

[Quote] 

Сила воли / Race- Страна: Канада, Германия
Жанр: драма, биография, спорт
Год выпуска: 2016
Продолжительность: 02:14:27
Перевод: Профессиональный (дублированный)
Cубтитры: русские, английские
Оригинальная аудиодорожка: английский
Режиссер: Стивен Хопкинс / Stephen Hopkins
В ролях: Стэфан Джеймс, Джейсон Судейкис, Эли Гори, Шанис Бэнтон, Кэрис ван Хаутен, Джереми Айронс, Уильям Хёрт, Давид Кросс, Джонатан Хиггинс, Тони Кёрран
Описание: Правдивая история легендарного чернокожего атлета Джесси Оуэнса, чье невероятное упорство привело его на Олимпийские игры 1936 года в нацистском Берлине. Встретившиеся на его пути преграды и искушения - ничто в сравнении с грандиозным забегом, за которым следил весь мир. Затаив дыхание, одни надеялись на победу Джесси как на символ справедливости и достоинства, а другие жаждали его поражения во имя триумфа идеологии. Несколько секунд - и Джесси ворвался в историю, бросив дерзкий вызов самому Гитлеру.
Сэмпл: http://sendfile.su/1286957
Качество видео: BDRip-AVC (Сила воли BDRemux 1080p)
Формат видео: MKV
Видео: x264, 1120x478 (2.35:1) 23,976 fps, ~1532 kbps, 0,119 bit/pixel
Аудио 1: 48 kHz, AC3 Dolby Digital, 3/2 (L,C,R,l,r) + LFE ch, ~384 kbps [русский, iTunes Russia]
Аудио 2: 48 kHz, AC3 Dolby Digital, 3/2 (L,C,R,l,r) + LFE ch, ~448 kbps [английский]
Формат субтитров: softsub (SRT)

MediaInfo

General
Unique ID : 190956808827286184740397822348582612439 (0x8FA8F1911D1DFD1388E087A6B10A6DD7)
Format : Matroska
Format version : Version 4 / Version 2
File size : 2.18 GiB
Duration : 2h 14mn
Overall bit rate : 2 327 Kbps
Encoded date : UTC 2016-12-02 05:01:56
Writing application : mkvmerge v9.6.0 ('Slave To Your Mind') 64bit
Writing library : libebml v1.3.4 + libmatroska v1.4.5
Video #1
ID : 1
Format : AVC
Format/Info : Advanced Video Codec
Format profile : High@L4.1
Format settings, CABAC : Yes
Format settings, ReFrames : 10 frames
Codec ID : V_MPEG4/ISO/AVC
Duration : 2h 14mn
Bit rate : 1 532 Kbps
Width : 1 120 pixels
Height : 478 pixels
Display aspect ratio : 2.35:1
Frame rate mode : Constant
Frame rate : 23.976 (24000/1001) fps
Color space : YUV
Chroma subsampling : 4:2:0
Bit depth : 8 bits
Scan type : Progressive
Bits/(Pixel*Frame) : 0.119
Stream size : 1.44 GiB (66%)
Writing library : x264 core 146 r2538 121396c
Encoding settings : cabac=1 / ref=10 / deblock=1:-3:-2 / analyse=0x3:0x113 / me=umh / subme=10 / psy=1 / psy_rd=1.00:0.00 / mixed_ref=1 / me_range=32 / chroma_me=1 / trellis=2 / 8x8dct=1 / cqm=0 / deadzone=21,11 / fast_pskip=1 / chroma_qp_offset=-2 / threads=6 / lookahead_threads=1 / sliced_threads=0 / nr=0 / decimate=1 / interlaced=0 / bluray_compat=0 / constrained_intra=0 / bframes=11 / b_pyramid=2 / b_adapt=2 / b_bias=0 / direct=1 / weightb=1 / open_gop=0 / weightp=2 / keyint=250 / keyint_min=23 / scenecut=40 / intra_refresh=0 / rc_lookahead=50 / rc=2pass / mbtree=1 / bitrate=1532 / ratetol=1.0 / qcomp=0.60 / qpmin=0 / qpmax=69 / qpstep=4 / cplxblur=20.0 / qblur=0.5 / ip_ratio=1.40 / aq=3:1.00
Language : English
Default : Yes
Forced : No
Audio #2
ID : 2
Format : AC-3
Format/Info : Audio Coding 3
Mode extension : CM (complete main)
Format settings, Endianness : Big
Codec ID : A_AC3
Duration : 2h 14mn
Bit rate mode : Constant
Bit rate : 384 Kbps
Channel(s) : 6 channels
Channel positions : Front: L C R, Side: L R, LFE
Sampling rate : 48.0 KHz
Frame rate : 31.250 fps (1536 spf)
Compression mode : Lossy
Stream size : 369 MiB (16%)
Title : Dub iTunes Russia
Language : Russian
Default : Yes
Forced : No
Audio #3
ID : 3
Format : AC-3
Format/Info : Audio Coding 3
Mode extension : CM (complete main)
Format settings, Endianness : Big
Codec ID : A_AC3
Duration : 2h 2mn
Bit rate mode : Constant
Bit rate : 448 Kbps
Channel(s) : 6 channels
Channel positions : Front: L C R, Side: L R, LFE
Sampling rate : 48.0 KHz
Frame rate : 31.250 fps (1536 spf)
Compression mode : Lossy
Stream size : 394 MiB (18%)
Language : English
Default : No
Forced : No
Text #4
ID : 4
Format : UTF-8
Codec ID : S_TEXT/UTF8
Codec ID/Info : UTF-8 Plain Text
Duration : 1h 32mn
Bit rate : 4 bps
Count of elements : 52
Stream size : 3.08 KiB (0%)
Language : Russian
Default : Yes
Forced : No
Text #5
ID : 5
Format : UTF-8
Codec ID : S_TEXT/UTF8
Codec ID/Info : UTF-8 Plain Text
Duration : 2h 3mn
Bit rate : 99 bps
Count of elements : 1641
Stream size : 89.7 KiB (0%)
Language : Russian
Default : No
Forced : No
Text #6
ID : 6
Format : UTF-8
Codec ID : S_TEXT/UTF8
Codec ID/Info : UTF-8 Plain Text
Duration : 1h 26mn
Bit rate : 2 bps
Count of elements : 51
Stream size : 1.70 KiB (0%)
Language : English
Default : No
Forced : No
Text #7
ID : 7
Format : UTF-8
Codec ID : S_TEXT/UTF8
Codec ID/Info : UTF-8 Plain Text
Duration : 2h 3mn
Bit rate : 57 bps
Count of elements : 1658
Stream size : 52.1 KiB (0%)
Language : English
Default : No
Forced : No
Text #8
ID : 8
Format : UTF-8
Codec ID : S_TEXT/UTF8
Codec ID/Info : UTF-8 Plain Text
Duration : 2h 4mn
Bit rate : 65 bps
Count of elements : 2007
Stream size : 59.5 KiB (0%)
Language : English
Default : No
Forced : No

лог

raw [info]: 1120x478p 1:1 @ 24000/1001 fps (cfr)
x264 [info]: using SAR=1/1
x264 [info]: using cpu capabilities: MMX2 SSE2Fast SSSE3 SSE4.2 AVX XOP FMA4 FMA3 LZCNT BMI1
x264 [info]: profile High, level 4.1
x264 [info]: frame I:1721 Avg QP:14.86 size: 78806
x264 [info]: frame P:46744 Avg QP:18.78 size: 18214
x264 [info]: frame B:144956 Avg QP:22.14 size: 3843
x264 [info]: consecutive B-frames: 4.3% 3.5% 13.0% 17.6% 17.1% 32.4% 5.4% 1.5% 1.9% 0.9% 1.0% 1.5%
x264 [info]: mb I I16..4: 9.3% 68.5% 22.2%
x264 [info]: mb P I16..4: 0.9% 5.7% 1.2% P16..4: 39.4% 24.6% 14.1% 0.0% 0.0% skip:14.1%
x264 [info]: mb B I16..4: 0.0% 0.3% 0.1% B16..8: 40.0% 7.2% 1.8% direct: 2.3% skip:48.3% L0:43.3% L1:47.8% BI: 8.9%
x264 [info]: 8x8 transform intra:71.7% inter:67.9%
x264 [info]: coded y,uvDC,uvAC intra: 82.2% 78.7% 53.8% inter: 13.7% 9.7% 2.1%
x264 [info]: i16 v,h,dc,p: 30% 22% 6% 43%
x264 [info]: i8 v,h,dc,ddl,ddr,vr,hd,vl,hu: 14% 10% 4% 9% 13% 14% 13% 12% 12%
x264 [info]: i4 v,h,dc,ddl,ddr,vr,hd,vl,hu: 11% 11% 3% 10% 15% 15% 13% 11% 11%
x264 [info]: i8c dc,h,v,p: 37% 24% 21% 17%
x264 [info]: Weighted P-Frames: Y:3.0% UV:1.7%
x264 [info]: ref P L0: 54.0% 12.6% 14.0% 5.5% 3.9% 3.1% 2.5% 1.5% 1.3% 1.3% 0.3% 0.0%
x264 [info]: ref B L0: 77.3% 10.5% 5.1% 2.4% 1.6% 1.3% 1.1% 0.5% 0.2%
x264 [info]: ref B L1: 92.0% 8.0%
x264 [info]: kb/s:1531.19
x264 [total]: encoded 193421 frames, 8.94 fps, 1531.19 kb/s

Скриншоты


[Profile]  [PM] 
Display posts:    
Reply to topic

Current time is: 20-Sep 22:58

All times are UTC + 2



You cannot post new topics in this forum
You cannot reply to topics in this forum
You cannot edit your posts in this forum
You cannot delete your posts in this forum
You cannot vote in polls in this forum
You cannot attach files in this forum
You cannot download files in this forum