Отряд самоубийц / Suicide Squad (Дэвид Эйр / David Ayer) [2016, США, фантастика, фэнтези, боевик, BDRip-AVC] [Театральная версия / Theatrical cut] Dub + Original + Sub (rus, eng)

Reply to topic
 
Author
Message

Satyr ®

Gender: Unknown

Longevity: 11 years

Posts: 15401

Reputation: 55 [+] [-]

Satyr · Post 04-Dec-2016 13:45

[Quote] 

Отряд самоубийц / Suicide Squad«Justice has a bad side»- Страна: США
Жанр: фантастика, фэнтези, боевик, приключения
Год выпуска: 2016
Продолжительность: 02:02:53
Перевод: Профессиональный (дублированный) (BD CEE)
Оригинальная аудиодорожка: английский
Субтитры: русские (форс., полные) английские (полные)
Навигация по главам: есть
Режиссер: Дэвид Эйр / David Ayer
В ролях: Марго Робби (Harley Quinn), Уилл Смит (Deadshot), Джаред Лето (The Joker), Джай Кортни (George Harkness / Captain Boomerang), Кара Делевинь (June Moone / Enchantress), Джей Эрнандес (Diablo), Юэль Киннаман (Rick Flag), Виола Дэвис (Amanda Waller), Адевале Акинойе-Агбаже (Killer Croc), Скотт Иствуд (Lieutenant GQ Edwards), Джейм Фицсаймонс (Sergeant Ames Bravo 14), Айк Баринхолц (Griggs)
Описание: Правительство решает дать команде суперзлодеев шанс на искупление. Подвох в том, что их отправляют на миссию, где они, вероятнее всего, погибнут.- -Качество: BDRip-AVC (исходник - Blu-ray|SUICIDE_SQUAD_3D_TC_HDCLUB)
Формат видео: MKV
Видео: x264, 1152x480 (2.40:1) 23,976 fps, ~2386 kbps, 0.180 bit/pixel
Аудио 1: 48 kHz, AC3 Dolby Digital, 3/2 (L,C,R,l,r) + LFE ch, ~448 kbps [русский]
Аудио 2: 48 kHz, AC3 Dolby Digital, 3/2 (L,C,R,l,r) + LFE ch, ~448 kbps [английский]
Формат субтитров: softsub (SRT)-

MediaInfo | x264 log

Format : Matroska
Format version : Version 4 / Version 2
File size : 2.87 GiB
Duration : 2h 2 min
Overall bit rate : 3 348 kb/s
Movie name : Отряд самоубийц / Suicide Squad (2016) :: AFM ::
Encoded date : UTC 2016-12-02 02:11:15
Writing application : mkvmerge v8.3.0 ('Over the Horizon') 32bit
Writing library : libebml v1.3.1 + libmatroska v1.4.2
Video
ID : 1
Format : AVC
Format/Info : Advanced Video Codec
Format profile : High@L4.1
Format settings, CABAC : Yes
Format settings, ReFrames : 11 frames
Codec ID : V_MPEG4/ISO/AVC
Duration : 2h 2 min
Bit rate : 2 386 kb/s
Width : 1 152 pixels
Height : 480 pixels
Display aspect ratio : 2.40:1
Frame rate mode : Constant
Frame rate : 23.976 (24000/1001) FPS
Color space : YUV
Chroma subsampling : 4:2:0
Bit depth : 8 bits
Scan type : Progressive
Bits/(Pixel*Frame) : 0.180
Stream size : 2.05 GiB (71%)
Title : BDRip by AFM
Writing library : x264 core 148 r2721+55 e19946b t_mod_Custom [8-bit@all X86_64]
Encoding settings : cabac=1 / ref=11 / deblock=1:-3:-2 / analyse=0x3:0x113 / me=umh / subme=10 / psy=1 / fade_compensate=0.00 / psy_rd=1.00:0.00 / mixed_ref=1 / me_range=32 / chroma_me=1 / trellis=2 / 8x8dct=1 / cqm=0 / deadzone=21,11 / fast_pskip=0 / chroma_qp_offset=-2 / threads=6 / lookahead_threads=1 / sliced_threads=0 / nr=0 / decimate=1 / interlaced=0 / bluray_compat=0 / constrained_intra=0 / fgo=0 / bframes=12 / b_pyramid=2 / b_adapt=2 / b_bias=0 / direct=1 / weightb=1 / open_gop=0 / weightp=2 / keyint=240 / keyint_min=23 / scenecut=40 / intra_refresh=0 / rc_lookahead=40 / rc=crf / mbtree=0 / crf=18.8500 / qcomp=0.65 / qpmin=0:0:0 / qpmax=69:69:69 / qpstep=4 / vbv_maxrate=50000 / vbv_bufsize=62500 / crf_max=0.0 / nal_hrd=none / filler=0 / ip_ratio=1.35 / pb_ratio=1.27 / aq=3:0.85 / aq-sensitivity=10.00 / aq-factor=1.00:1.00:1.00 / aq2=0 / aq3=0
Language : English
Default : Yes
Forced : No
Audio #1
ID : 2
Format : AC-3
Format/Info : Audio Coding 3
Mode extension : CM (complete main)
Format settings, Endianness : Big
Codec ID : A_AC3
Duration : 2h 2 min
Bit rate mode : Constant
Bit rate : 448 kb/s
Channel(s) : 6 channels
Channel positions : Front: L C R, Side: L R, LFE
Sampling rate : 48.0 kHz
Frame rate : 31.250 FPS (1536 spf)
Compression mode : Lossy
Stream size : 394 MiB (13%)
Title : Dub, AC3 5.1 ~448 kbps
Language : Russian
Default : Yes
Forced : No
Audio #2
ID : 3
Format : AC-3
Format/Info : Audio Coding 3
Mode extension : CM (complete main)
Format settings, Endianness : Big
Codec ID : A_AC3
Duration : 2h 2 min
Bit rate mode : Constant
Bit rate : 448 kb/s
Channel(s) : 6 channels
Channel positions : Front: L C R, Side: L R, LFE
Sampling rate : 48.0 kHz
Frame rate : 31.250 FPS (1536 spf)
Compression mode : Lossy
Stream size : 394 MiB (13%)
Title : Original, AC3 5.1 ~448 kbps
Language : English
Default : No
Forced : No
Text #1
ID : 4
Format : UTF-8
Codec ID : S_TEXT/UTF8
Codec ID/Info : UTF-8 Plain Text
Title : forced
Language : Russian
Default : Yes
Forced : No
Text #2
ID : 5
Format : UTF-8
Codec ID : S_TEXT/UTF8
Codec ID/Info : UTF-8 Plain Text
Language : Russian
Default : No
Forced : No
Text #3
ID : 6
Format : UTF-8
Codec ID : S_TEXT/UTF8
Codec ID/Info : UTF-8 Plain Text
Language : English
Default : No
Forced : No
Menu
00:00:00.000 : Chapter 01
00:09:07.505 : Chapter 02
00:19:03.726 : Chapter 03
00:29:27.140 : Chapter 04
00:39:17.313 : Chapter 05
00:50:21.227 : Chapter 06
01:00:10.106 : Chapter 07
01:11:46.928 : Chapter 08
01:22:46.128 : Chapter 09
01:32:01.099 : Chapter 10
01:39:21.831 : Chapter 11
01:52:27.991 : Chapter 12

x264

x264 [info]: frame I:1574 Avg QP:15.84 size: 65559
x264 [info]: frame P:35951 Avg QP:17.48 size: 26187
x264 [info]: frame B:139261 Avg QP:20.23 size: 8715
x264 [info]: consecutive B-frames: 2.2% 1.7% 5.4% 14.6% 17.9% 44.8% 7.2% 1.6% 1.5% 0.9% 0.7% 0.4% 1.1%
x264 [info]: mb I I16..4: 3.2% 85.1% 11.7%
x264 [info]: mb P I16..4: 0.7% 12.0% 1.5% P16..4: 36.6% 31.9% 16.2% 0.0% 0.0% skip: 1.1%
x264 [info]: mb B I16..4: 0.0% 0.7% 0.1% B16..8: 47.2% 13.9% 3.4% direct: 4.6% skip:30.0% L0:46.8% L1:46.4% BI: 6.8%
x264 [info]: 8x8 transform intra:84.2% inter:64.7%
x264 [info]: coded y,uvDC,uvAC intra: 94.1% 85.0% 62.3% inter: 25.9% 16.1% 2.0%
x264 [info]: i16 v,h,dc,p: 11% 10% 10% 68%
x264 [info]: i8 v,h,dc,ddl,ddr,vr,hd,vl,hu: 8% 7% 6% 11% 16% 14% 15% 12% 13%
x264 [info]: i4 v,h,dc,ddl,ddr,vr,hd,vl,hu: 6% 5% 2% 11% 18% 15% 16% 12% 14%
x264 [info]: i8c dc,h,v,p: 40% 25% 18% 17%
x264 [info]: Weighted P-Frames: Y:7.8% UV:5.6%
x264 [info]: ref P L0: 44.0% 8.0% 18.2% 7.4% 6.2% 4.3% 3.9% 2.2% 2.1% 1.7% 1.8% 0.2% 0.0%
x264 [info]: ref B L0: 66.9% 13.6% 7.3% 3.8% 2.7% 2.1% 1.6% 1.0% 0.7% 0.3%
x264 [info]: ref B L1: 92.5% 7.5%
x264 [info]: kb/s:2450.26

Скриншоты

с названием

]
[Profile]  [PM] 
Display posts:    
Reply to topic

Current time is: 26-Sep 11:54

All times are UTC + 2



You cannot post new topics in this forum
You cannot reply to topics in this forum
You cannot edit your posts in this forum
You cannot delete your posts in this forum
You cannot vote in polls in this forum
You cannot attach files in this forum
You cannot download files in this forum