Дом странных детей Мисс Перегрин / Miss Peregrine\'s Home for Peculiar Children (Тим Бёртон / Tim Burton) [2016, США, Великобритания, Бельгия, фэнтези, драма, приключения, HDRip-AVC] Dub

Reply to topic
 
Author
Message

Satyr ®

Gender: Unknown

Longevity: 11 years

Posts: 15401

Reputation: 55 [+] [-]

Satyr · Post 05-Dec-2016 10:10

[Quote] 

Дом странных детей Мисс Перегрин / Miss Peregrine's Home for Peculiar Children«Stay peculiar»- Страна: США, Великобритания, Бельгия
Жанр: фэнтези, драма, приключения, семейный
Год выпуска: 2016
Продолжительность: 02:06:55
Перевод: Профессиональный (дублированный)
Оригинальная аудиодорожка: нет
Субтитры: нет
Навигация по главам: есть
Режиссер: Тим Бёртон / Tim Burton
В ролях: Ева Грин (Miss Peregrine), Эйса Баттерфилд (Jake), Сэмюэл Л. Джексон (Barron), Джуди Денч (Miss Avocet), Руперт Эверетт (Ornithologist), Эллисон Дженни (Dr. Golan), Крис О’Дауд (Franklin Portman), Теренс Стэмп (Abraham «Abe» Portman), Элла Пернелл (Emma Bloom), Финлэй МакМиллан (Enoch O'Conner), Лорен МакКрости (Olive Abroholos Elephanta), Хейден Килер-Стоун (Horace Somnusson)
Описание: Детство Джейкоба прошло под рассказы дедушки о приюте для необычных детей. Среди его обитателей девочка, которая умела держать в руках огонь, девочка, чьи ноги не касались земли, невидимый мальчик и близнецы, умевшие общаться без слов. Когда дедушка умирает, 16-летний Джейкоб получает загадочное письмо и отправляется на остров, где вырос его дед. Там он находит детей, которых раньше видел только на фотографиях.- -Качество: HDRip-AVC (исходник - Miss.Peregrines.Home.for.Peculiar.Children.2016.1080p.BluRay.x264-SPARKS)
Формат видео: MKV
Видео: x264, 1152x624 (1.85:1) 23,976 fps, ~1963 kbps, 0.114 bit/pixel
Аудио: 48 kHz, AC3 Dolby Digital, 5.1, (Front: L C R, Side: L R, LFE) ch, ~448 kbps-

MediaInfo | x264 log

Format : Matroska
Format version : Version 4 / Version 2
File size : 2.18 GiB
Duration : 2h 6 min
Overall bit rate : 2 460 kb/s
Movie name : Дом странных детей Мисс Перегрин / Miss Peregrine's Home for Peculiar Children (2016) :: AFM ::
Encoded date : UTC 2016-12-04 23:04:52
Writing application : mkvmerge v8.3.0 ('Over the Horizon') 32bit
Writing library : libebml v1.3.1 + libmatroska v1.4.2
Video
ID : 1
Format : AVC
Format/Info : Advanced Video Codec
Format profile : High@L4.1
Format settings, CABAC : Yes
Format settings, ReFrames : 10 frames
Codec ID : V_MPEG4/ISO/AVC
Duration : 2h 6 min
Bit rate : 1 963 kb/s
Width : 1 152 pixels
Height : 624 pixels
Display aspect ratio : 1.85:1
Frame rate mode : Constant
Frame rate : 23.976 (24000/1001) FPS
Color space : YUV
Chroma subsampling : 4:2:0
Bit depth : 8 bits
Scan type : Progressive
Bits/(Pixel*Frame) : 0.114
Stream size : 1.74 GiB (80%)
Title : HDRip by AFM
Writing library : x264 core 148 r2721+55 e19946b t_mod_Custom [8-bit@all X86_64]
Encoding settings : cabac=1 / ref=10 / deblock=1:-3:-3 / analyse=0x3:0x113 / me=umh / subme=10 / psy=1 / fade_compensate=0.00 / psy_rd=1.00:0.00 / mixed_ref=1 / me_range=32 / chroma_me=1 / trellis=2 / 8x8dct=1 / cqm=0 / deadzone=21,11 / fast_pskip=0 / chroma_qp_offset=-2 / threads=6 / lookahead_threads=1 / sliced_threads=0 / nr=0 / decimate=1 / interlaced=0 / bluray_compat=0 / constrained_intra=0 / fgo=0 / bframes=10 / b_pyramid=2 / b_adapt=2 / b_bias=0 / direct=1 / weightb=1 / open_gop=0 / weightp=2 / keyint=240 / keyint_min=23 / scenecut=40 / intra_refresh=0 / rc_lookahead=40 / rc=crf / mbtree=0 / crf=19.4000 / qcomp=0.65 / qpmin=0:0:0 / qpmax=69:69:69 / qpstep=4 / vbv_maxrate=50000 / vbv_bufsize=62500 / crf_max=0.0 / nal_hrd=none / filler=0 / ip_ratio=1.30 / pb_ratio=1.25 / aq=3:0.80 / aq-sensitivity=10.00 / aq-factor=1.00:1.00:1.00 / aq2=0 / aq3=0
Language : English
Default : Yes
Forced : No
Audio
ID : 2
Format : AC-3
Format/Info : Audio Coding 3
Mode extension : CM (complete main)
Format settings, Endianness : Big
Codec ID : A_AC3
Duration : 2h 6 min
Bit rate mode : Constant
Bit rate : 448 kb/s
Channel(s) : 6 channels
Channel positions : Front: L C R, Side: L R, LFE
Sampling rate : 48.0 kHz
Frame rate : 31.250 FPS (1536 spf)
Compression mode : Lossy
Stream size : 407 MiB (18%)
Title : Dub, AC3 5.1 ~448 kbps
Language : Russian
Default : Yes
Forced : No
Menu
00:00:00.000 : en:00:00:00.000
00:03:40.804 : en:00:03:40.804
00:08:38.017 : en:00:08:38.017
00:13:06.828 : en:00:13:06.828
00:15:26.551 : en:00:15:26.551
00:19:47.478 : en:00:19:47.478
00:23:23.652 : en:00:23:23.652
00:27:47.040 : en:00:27:47.040
00:31:06.448 : en:00:31:06.448
00:34:36.783 : en:00:34:36.783
00:39:34.998 : en:00:39:34.998
00:42:42.810 : en:00:42:42.810
00:46:05.638 : en:00:46:05.638
00:48:36.497 : en:00:48:36.497
00:54:16.462 : en:00:54:16.462
00:57:21.480 : en:00:57:21.480
01:02:03.261 : en:01:02:03.261
01:08:20.847 : en:01:08:20.847
01:14:29.006 : en:01:14:29.006
01:18:54.063 : en:01:18:54.063
01:24:15.300 : en:01:24:15.300
01:28:42.442 : en:01:28:42.442
01:33:11.753 : en:01:33:11.753
01:36:29.033 : en:01:36:29.033
01:40:43.788 : en:01:40:43.788
01:46:09.238 : en:01:46:09.238
01:53:35.308 : en:01:53:35.308
02:00:34.394 : en:02:00:34.394

x264

x264 [info]: frame I:2058 Avg QP:16.86 size: 70310
x264 [info]: frame P:44930 Avg QP:18.30 size: 20517
x264 [info]: frame B:135603 Avg QP:21.08 size: 6246
x264 [info]: consecutive B-frames: 2.1% 2.4% 10.4% 58.9% 6.2% 11.5% 1.7% 6.0% 0.3% 0.2% 0.2%
x264 [info]: mb I I16..4: 6.7% 75.2% 18.1%
x264 [info]: mb P I16..4: 1.0% 7.8% 1.2% P16..4: 40.9% 24.6% 12.9% 0.0% 0.0% skip:11.6%
x264 [info]: mb B I16..4: 0.1% 0.7% 0.2% B16..8: 37.7% 8.1% 2.0% direct: 3.3% skip:48.0% L0:40.0% L1:48.9% BI:11.0%
x264 [info]: 8x8 transform intra:76.9% inter:67.3%
x264 [info]: coded y,uvDC,uvAC intra: 78.8% 72.7% 42.8% inter: 14.0% 10.1% 0.7%
x264 [info]: i16 v,h,dc,p: 34% 13% 7% 45%
x264 [info]: i8 v,h,dc,ddl,ddr,vr,hd,vl,hu: 13% 9% 8% 9% 12% 13% 12% 12% 12%
x264 [info]: i4 v,h,dc,ddl,ddr,vr,hd,vl,hu: 12% 7% 5% 10% 15% 14% 13% 11% 12%
x264 [info]: i8c dc,h,v,p: 38% 26% 22% 14%
x264 [info]: Weighted P-Frames: Y:3.1% UV:1.6%
x264 [info]: ref P L0: 52.8% 10.4% 15.8% 5.9% 4.3% 3.4% 2.8% 1.7% 1.5% 1.5% 0.1% 0.0%
x264 [info]: ref B L0: 77.7% 10.7% 4.8% 2.2% 1.6% 1.2% 1.0% 0.5% 0.3%
x264 [info]: ref B L1: 94.3% 5.7%
x264 [info]: kb/s:2010.10

Скриншоты

с названием

[Profile]  [PM] 
Display posts:    
Reply to topic

Current time is: 26-Sep 11:45

All times are UTC + 2



You cannot post new topics in this forum
You cannot reply to topics in this forum
You cannot edit your posts in this forum
You cannot delete your posts in this forum
You cannot vote in polls in this forum
You cannot attach files in this forum
You cannot download files in this forum