Дом странных детей Мисс Перегрин / Miss Peregrine\'s Home for Peculiar Children (Тим Бёртон / Tim Burton) [2016, США, Фэнтези, драма, приключения, семейный, HDRip] Dub

Reply to topic
 
Author
Message

Satyr ®

Online

Gender: Unknown

Longevity: 11 years

Posts: 15401

Reputation: 55 [+] [-]

Satyr · Post 05-Dec-2016 10:10

[Quote] 

Дом странных детей Мисс Перегрин / Miss Peregrine's Home for Peculiar Children- Год выхода: 2016
Выпущено: США, Великобритания, Бельгия / 20th Century Fox Film Corporation
Жанр: фэнтези, драма, приключения, семейный
Продолжительность: 02:06:55
Перевод: Профессиональный (полное дублирование) BD CEE |Лицензия|
Субтитры: нет-Режиссер:
Тим Бёртон / Tim Burton-В ролях:
Ева Грин, Эйса Баттерфилд, Сэмюэл Л. Джексон, Джуди Денч, Руперт Эверетт, Эллисон Джэнни, Крис О`Дауд, Теренс Стэмп, Элла Пёрнелл, Финлэй МакМиллан, Лорен МакКрости, Хейден Килер-Стоун, Джорджия Пембертон, Майло Паркер, Раффиелла Чепмен, Пикси Дейвис-О фильме:
Детство Джейкоба прошло под рассказы дедушки о приюте для необычных детей. Среди его обитателей девочка, которая умела держать в руках огонь, девочка, чьи ноги не касались земли, невидимый мальчик и близнецы, умевшие общаться без слов. Когда дедушка умирает, 16-летний Джейкоб получает загадочное письмо и отправляется на остров, где вырос его дед. Там он находит детей, которых раньше видел только на фотографиях.-Релиз групп | | IMDB | КиноПоиск | Сэмпл |-Качество: HDRip [Miss.Peregrines.Home.for.Peculiar.Children.2016.1080p.BluRay.x264-SPARKS]
Формат: AVI
Видео: 704x384 (1.83:1), 23.976 fps, XviD build 67 ~1189 kbps avg, 0.18 bit/pixel
Аудио: 48 kHz, AC3 Dolby Digital, 3/2 (L,C,R,l,r) + LFE ch, ~448 kbps
-

Скриншоты

-

MediaInfo

Общее
Полное имя                               : D:\Dom_strannyh_detei_Miss_Peregrin_2016_HDRip_by_Dalemake.avi
Формат                                   : AVI
Формат/Информация                        : Audio Video Interleave
Размер файла                             : 1,46 Гбайт
Продолжительность                        : 2 ч. 6 м.
Общий поток                              : 1646 Кбит/сек
Программа кодирования                    : VirtualDubMod 1.5.10.3 | www.virtualdub-fr.org || (build 2550/release)
Библиотека кодирования                   : VirtualDubMod build 2550/release
Видео
Идентификатор                            : 0
Формат                                   : MPEG-4 Visual
Профиль формата                          : Advanced Simple@L5
Параметр BVOP формата                    : 1
Параметр QPel формата                    : Нет
Параметр GMC формата                     : Без точки перехода
Параметр матрицы формата                 : Выборочная
Идентификатор кодека                     : XVID
Идентификатор кодека/Подсказка           : XviD
Продолжительность                        : 2 ч. 6 м.
Битрейт                                  : 1189 Кбит/сек
Ширина                                   : 704 пикселя
Высота                                   : 384 пикселя
Соотношение сторон                       : 1,85:1
Частота кадров                           : 23,976 кадра/сек
Цветовое пространство                    : YUV
Субдискретизация насыщенности            : 4:2:0
Битовая глубина                          : 8 бит
Тип развёртки                            : Прогрессивная
Метод сжатия                             : С потерями
Бит/(Пиксели*Кадры)                      : 0.183
Размер потока                            : 1,05 Гбайт (72%)
Библиотека кодирования                   : XviD 67
Аудио
Идентификатор                            : 1
Формат                                   : AC-3
Формат/Информация                        : Audio Coding 3
Расширение режима                        : CM (complete main)
Параметр Endianness формата              : Big
Идентификатор кодека                     : 2000
Продолжительность                        : 2 ч. 6 м.
Вид битрейта                             : Постоянный
Битрейт                                  : 448 Кбит/сек
Каналы                                   : 6 каналов
Расположение каналов                     : Front: L C R, Side: L R, LFE
Частота                                  : 48,0 КГц
Битовая глубина                          : 16 бит
Метод сжатия                             : С потерями
Размер потока                            : 407 Мбайт (27%)
Выравнивание                             : Разделение по промежуткам
Продолжительность промежутка             : 42  мс. (1,00 видеокадр)
Время предзагрузки промежутка            : 500  мс.
-
[Profile]  [PM] 
Display posts:    
Reply to topic

Current time is: 26-Sep 03:18

All times are UTC + 2



You cannot post new topics in this forum
You cannot reply to topics in this forum
You cannot edit your posts in this forum
You cannot delete your posts in this forum
You cannot vote in polls in this forum
You cannot attach files in this forum
You cannot download files in this forum