Миссия: Неадекватна / Army of One (Ларри Чарльз / Larry Charles) [2016, США, комедия, HDRip] MVO (Синема-УС)

Reply to topic
 
Author
Message

Satyr ®

Gender: Unknown

Longevity: 15 years

Posts: 21940

Reputation: 56 [+] [-]

Satyr · Post 05-Dec-2016 18:20

[Quote] 

Миссия: Неадекватна / Army of One
«One man's wildly true quest to capture Osama Bin Laden»
- Страна: США
Жанр: комедия
Год выпуска: 2016
Продолжительность: 01:32:38-Перевод: Любительский (многоголосый закадровый) - Синема-УС
Cубтитры: нет-Режиссер: Ларри Чарльз / Larry Charles-В ролях: Николас Кейдж, Дэнис О’Хэр, Венди МакЛендон-Кови, Рэйн Уилсон, Расселл Брэнд, Фиона Врум, Уилл Сассо, Пол Шеер, Хилари Джардин, Адриан Мартинес-Описание: Абсолютно безумная и уморительная история обычного американского гражданина, который по поручению Всевышнего решает в одиночку поймать Усаму бен Ладена. Когда миру нужен герой, Гэри спешит на помощь!-Сэмпл: http://multi-up.com/1129266-Качество видео: HDRip
Формат видео: AVI
Видео: 720x304 (2.35:1), 23.976 fps, XviD build 73, 1715 Kbps, 0.32 bit/pixel
Аудио: 48 kHz, AC3 Dolby Digital, 2 ch, 384 Kbps- -

MediaInfo

General
Complete name : Downloads\Army.of.One.2016.HDRip.avi
Format : AVI
Format/Info : Audio Video Interleave
File size : 1.36 GiB
Duration : 1h 32mn
Overall bit rate : 2 108 Kbps
Writing application : VirtualDubMod 1.5.10.2 (build 2540/release)
Writing library : VirtualDubMod build 2540/release
Video #0
ID : 0
Format : MPEG-4 Visual
Format profile : Advanced Simple@L5
Format settings, BVOP : 2
Format settings, QPel : No
Format settings, GMC : No warppoints
Format settings, Matrix : Default (H.263)
Muxing mode : Packed bitstream
Codec ID : XVID
Codec ID/Hint : XviD
Duration : 1h 32mn
Bit rate : 1 715 Kbps
Width : 720 pixels
Height : 304 pixels
Display aspect ratio : 2.35:1
Frame rate : 23.976 fps
Color space : YUV
Chroma subsampling : 4:2:0
Bit depth : 8 bits
Scan type : Progressive
Compression mode : Lossy
Bits/(Pixel*Frame) : 0.327
Stream size : 1.11 GiB (81%)
Writing library : XviD 73
Audio #1
ID : 1
Format : AC-3
Format/Info : Audio Coding 3
Mode extension : CM (complete main)
Format settings, Endianness : Big
Codec ID : 2000
Duration : 1h 32mn
Bit rate mode : Constant
Bit rate : 384 Kbps
Channel(s) : 2 channels
Channel positions : Front: L R
Sampling rate : 48.0 KHz
Bit depth : 16 bits
Compression mode : Lossy
Stream size : 254 MiB (18%)
Alignment : Split accross interleaves
Interleave, duration : 42 ms (1.00 video frame)
Interleave, preload duration : 500 ms

Скриншот c названием фильма

Скриншоты

[Profile]  [PM] 
Display posts:    
Reply to topic

Current time is: 19-Jun 11:46

All times are UTC + 2



You cannot post new topics in this forum
You cannot reply to topics in this forum
You cannot edit your posts in this forum
You cannot delete your posts in this forum
You cannot vote in polls in this forum
You cannot attach files in this forum
You cannot download files in this forum