Чудо на Гудзоне / Sully (Клинт Иствуд / Clint Eastwood) [2016, США, драма, биография, BDRip-AVC] Dub + Original + Sub (rus, eng)

Reply to topic
 
Author
Message

Satyr ®

Gender: Unknown

Longevity: 11 years

Posts: 15401

Reputation: 55 [+] [-]

Satyr · Post 07-Dec-2016 23:25

[Quote] 

Чудо на Гудзоне / Sully«Правдивая история о чудесном спасении»- Страна: США
Жанр: драма, биография
Год выпуска: 2016
Продолжительность: 01:35:50
Перевод: Профессиональный (дублированный) (iTunes)
Оригинальная аудиодорожка: английский
Субтитры: русские (форс., полные) английские (полные, SDH)
Навигация по главам: есть
Режиссер: Клинт Иствуд / Clint Eastwood
В ролях: Том Хэнкс (Chesley «Sully» Sullenberger), Аарон Экхарт (Jeff Skiles), Валери Махаффей (Diane Higgins), Делфи Хэррингтон (Lucille Palmer), Майк О’Мэлли (Charles Porter), Джейми Шеридан (Ben Edwards), Анна Ганн (Elizabeth Davis), Холт МакКэллани (Mike Cleary), Ахмед Хуссэйн (Egyptian Driver), Лора Линни (Lorraine Sullenberger), Лаура Ланди Уил (Reporter #1), Онира Саттервайт (Reporter #2)
Описание: Произошедшее 15 января 2009 года назовут «Чудом на Гудзоне». В тот день капитан рейса 1549 Чесли Салленбергер совершил аварийную посадку самолета A320 на холодные воды реки Гудзон в Нью-Йорке. При этом никто из находившихся на борту 155 человек не пострадал. Но, несмотря на все почести со стороны общественности и СМИ, было начато расследование, которое угрожало профессиональной репутации и многолетней карьере капитана Салли.- -Качество: BDRip-AVC (исходник - BDRemux|SULLY_RMX_BLUEBIRD)
Формат видео: MKV
Видео: x264, 1152x482 (2.40:1) 23,976 fps, ~1605 kbps, 0.121 bit/pixel
Аудио №1: 48 kHz, AC3 Dolby Digital, 5.1, (Front: L C R, Side: L R, LFE) ch, ~384 kbps [русский]
Аудио №2: 48 kHz, AC3 Dolby Digital, 2.0, (Front: L R) ch, ~192 kbps [английский]
Формат субтитров: softsub (SRT)-

MediaInfo | x264 log

Format : Matroska
Format version : Version 4 / Version 2
File size : 1.46 GiB
Duration : 1h 35 min
Overall bit rate : 2 182 kb/s
Movie name : Чудо на Гудзоне / Sully (2016) :: AFM ::
Encoded date : UTC 2016-12-07 10:42:32
Writing application : mkvmerge v8.3.0 ('Over the Horizon') 32bit
Writing library : libebml v1.3.1 + libmatroska v1.4.2
Video
ID : 1
Format : AVC
Format/Info : Advanced Video Codec
Format profile : High@L4.1
Format settings, CABAC : Yes
Format settings, ReFrames : 10 frames
Codec ID : V_MPEG4/ISO/AVC
Duration : 1h 35 min
Bit rate : 1 605 kb/s
Width : 1 152 pixels
Height : 482 pixels
Display aspect ratio : 2.40:1
Frame rate mode : Constant
Frame rate : 23.976 (24000/1001) FPS
Color space : YUV
Chroma subsampling : 4:2:0
Bit depth : 8 bits
Scan type : Progressive
Bits/(Pixel*Frame) : 0.121
Stream size : 1.05 GiB (72%)
Title : BDRip by AFM
Writing library : x264 core 148 r2721+55 e19946b t_mod_Custom [8-bit@all X86_64]
Encoding settings : cabac=1 / ref=10 / deblock=1:-2:-2 / analyse=0x3:0x113 / me=umh / subme=10 / psy=1 / fade_compensate=0.00 / psy_rd=1.00:0.00 / mixed_ref=1 / me_range=32 / chroma_me=1 / trellis=2 / 8x8dct=1 / cqm=0 / deadzone=21,11 / fast_pskip=0 / chroma_qp_offset=-2 / threads=6 / lookahead_threads=1 / sliced_threads=0 / nr=0 / decimate=0 / interlaced=0 / bluray_compat=0 / constrained_intra=0 / fgo=0 / bframes=12 / b_pyramid=2 / b_adapt=2 / b_bias=0 / direct=3 / weightb=1 / open_gop=0 / weightp=2 / keyint=240 / keyint_min=23 / scenecut=40 / intra_refresh=0 / rc_lookahead=40 / rc=2pass / mbtree=0 / bitrate=1605 / ratetol=1.0 / qcomp=0.65 / qpmin=0:0:0 / qpmax=69:69:69 / qpstep=4 / cplxblur=20.0 / qblur=0.5 / vbv_maxrate=50000 / vbv_bufsize=62500 / nal_hrd=none / filler=0 / ip_ratio=1.33 / pb_ratio=1.30 / aq=3:0.85 / aq-sensitivity=10.00 / aq-factor=1.00:1.00:1.00 / aq2=0 / aq3=0 / zones=132730,137887,q=30
Language : English
Default : Yes
Forced : No
Audio #1
ID : 2
Format : AC-3
Format/Info : Audio Coding 3
Mode extension : CM (complete main)
Format settings, Endianness : Big
Codec ID : A_AC3
Duration : 1h 35 min
Bit rate mode : Constant
Bit rate : 384 kb/s
Channel(s) : 6 channels
Channel positions : Front: L C R, Side: L R, LFE
Sampling rate : 48.0 kHz
Frame rate : 31.250 FPS (1536 spf)
Compression mode : Lossy
Stream size : 263 MiB (18%)
Title : Dub, AC3 5.1 ~384 kbps
Language : Russian
Default : Yes
Forced : No
Audio #2
ID : 3
Format : AC-3
Format/Info : Audio Coding 3
Mode extension : CM (complete main)
Format settings, Endianness : Big
Codec ID : A_AC3
Duration : 1h 35 min
Bit rate mode : Constant
Bit rate : 192 kb/s
Channel(s) : 2 channels
Channel positions : Front: L R
Sampling rate : 48.0 kHz
Frame rate : 31.250 FPS (1536 spf)
Compression mode : Lossy
Stream size : 132 MiB (9%)
Title : Original, AC3 2.0 ~192 kbps
Language : English
Default : No
Forced : No
Text #1
ID : 4
Format : UTF-8
Codec ID : S_TEXT/UTF8
Codec ID/Info : UTF-8 Plain Text
Title : forced
Language : Russian
Default : Yes
Forced : No
Text #2
ID : 5
Format : UTF-8
Codec ID : S_TEXT/UTF8
Codec ID/Info : UTF-8 Plain Text
Language : Russian
Default : No
Forced : No
Text #3
ID : 6
Format : UTF-8
Codec ID : S_TEXT/UTF8
Codec ID/Info : UTF-8 Plain Text
Language : English
Default : No
Forced : No
Text #4
ID : 7
Format : UTF-8
Codec ID : S_TEXT/UTF8
Codec ID/Info : UTF-8 Plain Text
Title : SDH
Language : English
Default : No
Forced : No
Menu
00:00:00.000 : en:Chapter 1
00:11:12.504 : en:Chapter 2
00:18:06.166 : en:Chapter 3
00:29:57.921 : en:Chapter 4
00:38:55.416 : en:Chapter 5
00:49:20.747 : en:Chapter 6
01:00:50.854 : en:Chapter 7
01:08:16.381 : en:Chapter 8
01:18:09.810 : en:Chapter 9
01:26:59.796 : en:Chapter 10

x264

x264 [info]: frame I:1272 Avg QP:15.36 size: 64833
x264 [info]: frame P:31196 Avg QP:18.61 size: 18427
x264 [info]: frame B:105419 Avg QP:20.16 size: 4702
x264 [info]: consecutive B-frames: 2.7% 3.4% 11.5% 20.8% 18.5% 28.4% 5.3% 2.1% 1.4% 0.9% 0.8% 2.1% 2.1%
x264 [info]: mb I I16..4: 7.0% 71.5% 21.6%
x264 [info]: mb P I16..4: 1.2% 8.5% 1.9% P16..4: 40.5% 26.0% 12.8% 0.0% 0.0% skip: 9.2%
x264 [info]: mb B I16..4: 0.1% 0.7% 0.2% B16..8: 37.2% 9.4% 2.0% direct: 2.8% skip:47.7% L0:42.9% L1:45.0% BI:12.1%
x264 [info]: 8x8 transform intra:73.0% inter:63.9%
x264 [info]: direct mvs spatial:96.9% temporal:3.1%
x264 [info]: coded y,uvDC,uvAC intra: 78.1% 61.9% 35.1% inter: 14.8% 8.8% 3.8%
x264 [info]: i16 v,h,dc,p: 31% 17% 6% 46%
x264 [info]: i8 v,h,dc,ddl,ddr,vr,hd,vl,hu: 17% 12% 7% 8% 11% 11% 12% 10% 12%
x264 [info]: i4 v,h,dc,ddl,ddr,vr,hd,vl,hu: 25% 10% 4% 8% 12% 11% 12% 9% 11%
x264 [info]: i8c dc,h,v,p: 33% 34% 21% 11%
x264 [info]: Weighted P-Frames: Y:3.9% UV:1.1%
x264 [info]: ref P L0: 53.3% 11.0% 14.9% 5.5% 4.5% 3.2% 2.9% 1.6% 1.5% 1.4% 0.1% 0.0%
x264 [info]: ref B L0: 74.7% 10.9% 5.7% 2.8% 2.0% 1.6% 1.3% 0.6% 0.3%
x264 [info]: ref B L1: 94.2% 5.8%
x264 [info]: kb/s:1603.95

Скриншоты

с названием

Торрент перезалит - замена на BDRip
[Profile]  [PM] 
Display posts:    
Reply to topic

Current time is: 18-Sep 16:12

All times are UTC + 2



You cannot post new topics in this forum
You cannot reply to topics in this forum
You cannot edit your posts in this forum
You cannot delete your posts in this forum
You cannot vote in polls in this forum
You cannot attach files in this forum
You cannot download files in this forum