Пришельцы 3: Взятие Бастилии / Les Visiteurs: La Revolution (Жан-Мари Пуаре / Jean-Marie Poire) [2016, Франция, комедия, BDRip-AVC] Dub + Original + Sub Fre

Reply to topic
 
Author
Message

Satyr ®

Gender: Unknown

Longevity: 11 years

Posts: 15401

Reputation: 55 [+] [-]

Satyr · Post 12-Dec-2016 17:50

[Quote] 

Пришельцы 3: Взятие Бастилии / Les Visiteurs: La Revolution- Страна: Франция | Gaumont, Ouille Productions, Nexus Factory
Жанр: комедия
Год выпуска: 2016
Продолжительность: 01:49:29
Перевод: Профессиональный (дублированный)
Cубтитры: французские форс
Оригинальная аудиодорожка: французский
Режиссер: Жан-Мари Пуаре / Jean-Marie Poire
В ролях: Кристиан Клавье, Жан Рено, Франк Дюбоск, Карин Вьяр, Сильви Тестю, Мари-Анн Шазель, Эри Абиттан …
Описание: Легендарные и любимые миллионами комедии «Пришельцы» и «Пришельцы 2: Коридоры времени» получили свое продолжение. Заключительная часть трилогии будет посвящена приключениям героев Жана Рено и Кристиана Клавье во времени, и на этот раз они попадут в одну из самых ярких эпох – время Великой Французской Революции. «Тот самый» качественный французский юмор, по которому скучали, блестящий актерский состав, пронизанный изящной иронией сценарий дают полное основание полагать, что современное прочтение культовых французских картин не оставит равнодушными ценителей жанра, поклонников легендарных актеров и всех любителей первоклассного европейского кино.
Сэмпл: http://sendfile.su/1289521
Качество видео: BDRip-AVC (Les Visiteurs: La Révolution (2016) 1080p BD-Remux HDclub)
Формат видео: MKV
Видео: x264, 1120x470 (2.40:1) 23,976 fps, ~2965 kbps, 0,235 bit/pixel
Аудио 1: 48 kHz, AC3 Dolby Digital, 3/2 (L,C,R,l,r) + LFE ch, ~384 kbps [русский, iTunes Russia]
Аудио 2: 48 kHz, AC3 Dolby Digital, 3/2 (L,C,R,l,r) + LFE ch, ~448 kbps [английский]
Формат субтитров: softsub (SRT)

MediaInfo

General
Unique ID : 181888650408455803205914028913071411684 (0x88D67AD691FDFA8B8A279B2BE802D1E4)
Format : Matroska
Format version : Version 4 / Version 2
File size : 2.90 GiB
Duration : 1h 49mn
Overall bit rate : 3 797 Kbps
Movie name : Les.Visiteurs.La.Revolution.2016
Encoded date : UTC 2016-12-11 06:23:40
Writing application : mkvmerge v9.6.0 ('Slave To Your Mind') 64bit
Writing library : libebml v1.3.4 + libmatroska v1.4.5
Video #1
ID : 1
Format : AVC
Format/Info : Advanced Video Codec
Format profile : High@L4.1
Format settings, CABAC : Yes
Format settings, ReFrames : 11 frames
Codec ID : V_MPEG4/ISO/AVC
Duration : 1h 49mn
Bit rate : 2 965 Kbps
Width : 1 120 pixels
Height : 470 pixels
Display aspect ratio : 2.40:1
Frame rate mode : Constant
Frame rate : 24.000 fps
Color space : YUV
Chroma subsampling : 4:2:0
Bit depth : 8 bits
Scan type : Progressive
Bits/(Pixel*Frame) : 0.235
Stream size : 2.27 GiB (78%)
Writing library : x264 core 146 r2538 121396c
Encoding settings : cabac=1 / ref=11 / deblock=1:-3:-2 / analyse=0x3:0x113 / me=umh / subme=10 / psy=1 / psy_rd=1.00:0.00 / mixed_ref=1 / me_range=32 / chroma_me=1 / trellis=2 / 8x8dct=1 / cqm=0 / deadzone=21,11 / fast_pskip=1 / chroma_qp_offset=-2 / threads=6 / lookahead_threads=1 / sliced_threads=0 / nr=0 / decimate=1 / interlaced=0 / bluray_compat=0 / constrained_intra=0 / bframes=10 / b_pyramid=2 / b_adapt=2 / b_bias=0 / direct=1 / weightb=1 / open_gop=0 / weightp=2 / keyint=250 / keyint_min=23 / scenecut=40 / intra_refresh=0 / rc_lookahead=50 / rc=2pass / mbtree=1 / bitrate=2965 / ratetol=1.0 / qcomp=0.60 / qpmin=0 / qpmax=69 / qpstep=4 / cplxblur=20.0 / qblur=0.5 / ip_ratio=1.40 / aq=3:1.00
Language : English
Default : Yes
Forced : No
Audio #2
ID : 2
Format : AC-3
Format/Info : Audio Coding 3
Mode extension : CM (complete main)
Format settings, Endianness : Big
Codec ID : A_AC3
Duration : 1h 49mn
Bit rate mode : Constant
Bit rate : 384 Kbps
Channel(s) : 6 channels
Channel positions : Front: L C R, Side: L R, LFE
Sampling rate : 48.0 KHz
Frame rate : 31.250 fps (1536 spf)
Compression mode : Lossy
Stream size : 301 MiB (10%)
Language : Russian
Default : Yes
Forced : No
Audio #3
ID : 3
Format : AC-3
Format/Info : Audio Coding 3
Mode extension : CM (complete main)
Format settings, Endianness : Big
Codec ID : A_AC3
Duration : 1h 49mn
Bit rate mode : Constant
Bit rate : 448 Kbps
Channel(s) : 6 channels
Channel positions : Front: L C R, Side: L R, LFE
Sampling rate : 48.0 KHz
Frame rate : 31.250 fps (1536 spf)
Compression mode : Lossy
Stream size : 351 MiB (12%)
Language : French
Default : No
Forced : No
Text #4
ID : 4
Format : UTF-8
Codec ID : S_TEXT/UTF8
Codec ID/Info : UTF-8 Plain Text
Duration : 5s 42ms
Bit rate : 125 bps
Count of elements : 3
Stream size : 79.0 Bytes (0%)
Title : French Forced
Language : French
Default : No
Forced : No

лог

raw [info]: 1120x470p 1:1 @ 10000000/416667 fps (cfr)
x264 [info]: using SAR=1/1
x264 [info]: using cpu capabilities: MMX2 SSE2Fast SSSE3 SSE4.2 AVX XOP FMA4 FMA3 LZCNT BMI1
x264 [info]: profile High, level 4.1
x264 [info]: frame I:2506 Avg QP:14.83 size:111435
x264 [info]: frame P:35046 Avg QP:18.73 size: 32459
x264 [info]: frame B:120119 Avg QP:21.84 size: 8460
x264 [info]: consecutive B-frames: 3.0% 2.9% 10.0% 20.9% 17.8% 37.4% 5.2% 1.0% 0.9% 0.5% 0.4%
x264 [info]: mb I I16..4: 5.3% 66.8% 27.8%
x264 [info]: mb P I16..4: 1.1% 9.4% 2.0% P16..4: 36.1% 26.2% 16.5% 0.0% 0.0% skip: 8.7%
x264 [info]: mb B I16..4: 0.1% 0.8% 0.2% B16..8: 39.6% 11.2% 3.8% direct: 5.0% skip:39.4% L0:44.6% L1:44.4% BI:11.0%
x264 [info]: 8x8 transform intra:72.4% inter:61.4%
x264 [info]: coded y,uvDC,uvAC intra: 87.2% 87.1% 67.7% inter: 24.6% 20.0% 4.2%
x264 [info]: i16 v,h,dc,p: 54% 11% 8% 27%
x264 [info]: i8 v,h,dc,ddl,ddr,vr,hd,vl,hu: 17% 7% 7% 9% 13% 13% 12% 11% 11%
x264 [info]: i4 v,h,dc,ddl,ddr,vr,hd,vl,hu: 17% 6% 5% 9% 14% 14% 12% 11% 11%
x264 [info]: i8c dc,h,v,p: 42% 18% 23% 17%
x264 [info]: Weighted P-Frames: Y:2.5% UV:0.9%
x264 [info]: ref P L0: 48.3% 12.4% 15.7% 6.8% 4.9% 3.5% 2.8% 1.7% 1.4% 1.2% 1.1% 0.2% 0.0%
x264 [info]: ref B L0: 74.6% 11.0% 5.6% 2.9% 2.0% 1.4% 1.1% 0.7% 0.4% 0.2%
x264 [info]: ref B L1: 92.4% 7.6%
x264 [info]: kb/s:2962.80
x264 [total]: encoded 157671 frames, 8.10 fps, 2962.80 kb/s

Скриншоты


[Profile]  [PM] 
Display posts:    
Reply to topic

Current time is: 22-Sep 16:25

All times are UTC + 2



You cannot post new topics in this forum
You cannot reply to topics in this forum
You cannot edit your posts in this forum
You cannot delete your posts in this forum
You cannot vote in polls in this forum
You cannot attach files in this forum
You cannot download files in this forum