Свет в океане / The Light Between Oceans (Дерек Сиенфрэнс / Derek Cianfrance) [2016, США, Драма, мелодрама, WEB-DLRip] [Локализованный видеоряд] Dub (iTunes)

Reply to topic
 
Author
Message

Satyr ®

Gender: Unknown

Longevity: 11 years

Posts: 15401

Reputation: 55 [+] [-]

Satyr · Post 12-Dec-2016 17:50

[Quote] 

Свет в океане / The Light Between Oceans- Год выхода: 2016
Страна: Великобритания, Новая Зеландия, США
Жанр: драма, мелодрама
Продолжительность: 02:12:39
Перевод: Профессиональный (полное дублирование)
Субтитры: нет-Режиссер:
Дерек Сиенфрэнс / Derek Cianfrance-В ролях:
Майкл Фассбендер (Tom Sherbourne), Алисия Викандер (Isabel Graysmark), Рэйчел Вайс (Hannah Roennfeldt), Флоренс Клери (Lucy-Grace), Джек Томпсон (Ralph Addicott), Томас Унгер (Bluey Smart), Джейн Менелос (Violet Graysmark), Гарри МакДональд (Bill Graysmark), Энтони Хэйес (Sergeant Vernon Knuckey), Бенедикт Харди (Constable Harry Garstone)-О фильме:
Вернувшийся с войны смотритель маяка Том встречает трепетную девушку по имени Изабель. Зародившаяся между ними любовь полностью преображает Изабель и возвращает опустошенному Тому веру в жизнь. Молодожены поселяются на уединенном острове, к берегу которого однажды пристает лодка с новорожденной девочкой. Супруги решают воспитать младенца как родную дочь, не представляя, насколько разрушительными будут последствия этого выбора.-Релиз групп | | IMDB | КиноПоиск | Сэмпл |-Качество: WEB-DLRip [The.Light.Between.Oceans.2016.1080p.WEB-DL.Rus.Eng.HDCLUB]
Формат: AVI
Видео: 704x288 (2.44:1), 23.976 fps, XviD build 67 ~1371 kbps avg, 0.28 bit/pixel
Аудио: 48 kHz, AC3 Dolby Digital, 2/0 (L,R) ch, ~192 kbps avg - iTunes Russia
-

Скриншоты

-

MediaInfo

Общее
Полное имя                               : D:\Svet_v_okeane_2016_WEB-DLRip_iT_by_Dalemake.avi
Формат                                   : AVI
Формат/Информация                        : Audio Video Interleave
Размер файла                             : 1,46 Гбайт
Продолжительность                        : 2 ч. 12 м.
Общий поток                              : 1573 Кбит/сек
Программа кодирования                    : VirtualDubMod 1.5.10.3 | www.virtualdub-fr.org || (build 2550/release)
Библиотека кодирования                   : VirtualDubMod build 2550/release
Видео
Идентификатор                            : 0
Формат                                   : MPEG-4 Visual
Профиль формата                          : Advanced Simple@L5
Параметр BVOP формата                    : 1
Параметр QPel формата                    : Нет
Параметр GMC формата                     : Без точки перехода
Параметр матрицы формата                 : Выборочная
Идентификатор кодека                     : XVID
Идентификатор кодека/Подсказка           : XviD
Продолжительность                        : 2 ч. 12 м.
Битрейт                                  : 1372 Кбит/сек
Ширина                                   : 704 пикселя
Высота                                   : 288 пикселей
Соотношение сторон                       : 2,40:1
Частота кадров                           : 23,976 кадра/сек
Цветовое пространство                    : YUV
Субдискретизация насыщенности            : 4:2:0
Битовая глубина                          : 8 бит
Тип развёртки                            : Прогрессивная
Метод сжатия                             : С потерями
Бит/(Пиксели*Кадры)                      : 0.282
Размер потока                            : 1,27 Гбайт (87%)
Библиотека кодирования                   : XviD 67
Аудио
Идентификатор                            : 1
Формат                                   : AC-3
Формат/Информация                        : Audio Coding 3
Расширение режима                        : CM (complete main)
Параметр Endianness формата              : Big
Идентификатор кодека                     : 2000
Продолжительность                        : 2 ч. 12 м.
Вид битрейта                             : Постоянный
Битрейт                                  : 192 Кбит/сек
Каналы                                   : 2 канала
Расположение каналов                     : Front: L R
Частота                                  : 48,0 КГц
Битовая глубина                          : 16 бит
Метод сжатия                             : С потерями
Размер потока                            : 182 Мбайт (12%)
Выравнивание                             : Разделение по промежуткам
Продолжительность промежутка             : 42  мс. (1,00 видеокадр)
Время предзагрузки промежутка            : 500  мс.
-
[Profile]  [PM] 
Display posts:    
Reply to topic

Current time is: 19-Sep 11:49

All times are UTC + 2



You cannot post new topics in this forum
You cannot reply to topics in this forum
You cannot edit your posts in this forum
You cannot delete your posts in this forum
You cannot vote in polls in this forum
You cannot attach files in this forum
You cannot download files in this forum