Импульс / Urge (Аарон Кауфман / Aaron Kaufman) [2016, США, Триллер, BDRip] Dub (iTunes)

Reply to topic
 
Author
Message

Satyr ®

Gender: Unknown

Longevity: 11 years

Posts: 15401

Reputation: 55 [+] [-]

Satyr · Post 15-Dec-2016 15:15

[Quote] 

Импульс / Urge

«Новый оттенок твоего удовольствия»
- Страна: США
Жанр: Tриллер
Год выпуска: 2016
Продолжительность: 01:30:40-Перевод: Профессиональный (дублированный) iTunes
Cубтитры: нет-Режиссер: Аарон Кауфман / Aaron Kaufman-В ролях: Пирс Броснан (The Man), Джастин Чатвин (Jason Brettner), Дэнни Мастерсон (Neil), Эшли Грин (Theresa), Ник Тун (Danny), Алексис Нэп (Joey), Крис Гир (Vick), Бар Пали (Denise), Ки Хо (Xiomara), Элисон Ломан (Mother), Джаггер Давид Фишман-Сальгеро (Boy), Эрик Дэвис (The Red Bastard)-Описание: Абсолютно все ищут новых ощущений. А что если на земле есть место, где дают возможность испытать любой оттенок удовольствия? Группа друзей прилетает на остров и решает попробовать вещество, которое лишит их способности контролировать свои порывы. Теперь они могут делать все, о чем они так долго мечтали. Но как далеко они готовы зайти в поисках наивысшего наслаждения?- / -Качество видео: BDRip | исх. Urge (2016) Blu-ray Disc -
Формат видео: AVI
Видео: 688x368 (1.87:1), 23.976 fps, XviD build 73, 1851 Kbps, 0.30 bit/pixel
Аудио: 48 kHz, AC3 Dolby Digital, 3/2 (L,C,R,l,r) + LFE ch, 384 kbps--Релиз от: ExKinoRay by Twi7ter-
-

MediaInfo

General
Complete name : Downloads\Impuls.2016.D.BDRip_ExKinoRay_by_Twi7ter.avi
Format : AVI
Format/Info : Audio Video Interleave
File size : 1.42 GiB
Duration : 1h 30mn
Overall bit rate : 2 244 Kbps
Video #0
ID : 0
Format : MPEG-4 Visual
Format profile : Advanced Simple@L5
Format settings, BVOP : 2
Format settings, QPel : No
Format settings, GMC : No warppoints
Format settings, Matrix : Custom
Codec ID : XVID
Codec ID/Hint : XviD
Duration : 1h 30mn
Bit rate : 1 851 Kbps
Width : 688 pixels
Height : 368 pixels
Display aspect ratio : 1.85:1
Frame rate : 23.976 fps
Color space : YUV
Chroma subsampling : 4:2:0
Bit depth : 8 bits
Scan type : Progressive
Compression mode : Lossy
Bits/(Pixel*Frame) : 0.305
Stream size : 1.17 GiB (82%)
Writing library : XviD 73
Audio #1
ID : 1
Format : AC-3
Format/Info : Audio Coding 3
Mode extension : CM (complete main)
Format settings, Endianness : Big
Codec ID : 2000
Duration : 1h 30mn
Bit rate mode : Constant
Bit rate : 384 Kbps
Channel(s) : 6 channels
Channel positions : Front: L C R, Side: L R, LFE
Sampling rate : 48.0 KHz
Bit depth : 16 bits
Compression mode : Lossy
Stream size : 249 MiB (17%)
Alignment : Aligned on interleaves
Interleave, duration : 42 ms (1.00 video frame)
Interleave, preload duration : 512 ms

Скриншот c названием фильма

Скриншоты

[Profile]  [PM] 
Display posts:    
Reply to topic

Current time is: 24-Sep 22:44

All times are UTC + 2



You cannot post new topics in this forum
You cannot reply to topics in this forum
You cannot edit your posts in this forum
You cannot delete your posts in this forum
You cannot vote in polls in this forum
You cannot attach files in this forum
You cannot download files in this forum