Чувство справедливости / Equity (Мира Менон / Meera Menon) [2016, США, Драма, HDRip] MVO (iTunes)

Reply to topic
 
Author
Message

Satyr ®

Gender: Unknown

Longevity: 11 years

Posts: 15401

Reputation: 55 [+] [-]

Satyr · Post 15-Dec-2016 15:15

[Quote] 

Чувство справедливости / Equity«On Wall Street, all players are not created equal»
Страна: США
Студия: Broad Street Pictures
Жанр: драма
Год выпуска: 2016
Продолжительность: 01:40:21
Перевод: Профессиональный (многоголосый закадровый) - (iTunes)
Cубтитры: нет
Оригинальная аудиодорожка: нет
Режиссер: Мира Менон / Meera Menon
В ролях: Анна Ганн, Джеймс Пьюрфой, Сара Меган Томас, Алисия Райнер, Крэйг Бирко, Маргарет Колин, Нэйт Корддри, Ник Гелфусс, Кэрри Престон, Сэмюэл Рукин
Описание: История старшего инвестиционного банкира, которой вопреки нависшему над ней финансовому скандалу предстоит раскрыть коррупционные схемы.
Сэмпл: http://multi-up.com/1130709
Качество видео: HDRip
Исходник: Equity.2016.P.BDRip.1080p
Формат видео: AVI
Видео: 720x384 (1.88:1), 23.976 fps, XviD build 65 ~1689 kbps avg, 0.26 bit/pixel
Аудио RUS: 48 kHz, AC3 Dolby Digital, 3/2 (L,C,R,l,r) + LFE ch, ~384 kbps

Rip by Ториял для

MediaInfo

Format : AVI
Format/Info : Audio Video Interleave
File size : 1.46 GiB
Duration : 1h 40mn
Overall bit rate : 2 083 Kbps
Writing application : VirtualDubMod 1.5.10.3 | www.virtualdub-fr.org || (build 2550/release)
Writing library : VirtualDubMod build 2550/release
Video
ID : 0
Format : MPEG-4 Visual
Format profile : Advanced Simple@L5
Format settings, BVOP : 1
Format settings, QPel : No
Format settings, GMC : No warppoints
Format settings, Matrix : Custom
Codec ID : XVID
Codec ID/Hint : XviD
Duration : 1h 40mn
Bit rate : 1 690 Kbps
Width : 720 pixels
Height : 384 pixels
Display aspect ratio : 1.85:1
Frame rate : 23.976 (23976/1000) fps
Color space : YUV
Chroma subsampling : 4:2:0
Bit depth : 8 bits
Scan type : Progressive
Compression mode : Lossy
Bits/(Pixel*Frame) : 0.255
Stream size : 1.18 GiB (81%)
Writing library : XviD 65
Audio
ID : 1
Format : AC-3
Format/Info : Audio Coding 3
Mode extension : CM (complete main)
Format settings, Endianness : Big
Codec ID : 2000
Duration : 1h 40mn
Bit rate mode : Constant
Bit rate : 384 Kbps
Channel(s) : 6 channels
Channel positions : Front: L C R, Side: L R, LFE
Sampling rate : 48.0 KHz
Frame rate : 31.250 fps (1536 spf)
Compression mode : Lossy
Stream size : 276 MiB (18%)
Alignment : Split accross interleaves
Interleave, duration : 42 ms (1.00 video frame)
Interleave, preload duratio : 500 ms

Скриншоты

[Profile]  [PM] 
Display posts:    
Reply to topic

Current time is: 19-Sep 12:10

All times are UTC + 2



You cannot post new topics in this forum
You cannot reply to topics in this forum
You cannot edit your posts in this forum
You cannot delete your posts in this forum
You cannot vote in polls in this forum
You cannot attach files in this forum
You cannot download files in this forum