Импульс / Urge (Аарон Кауфман / Aaron Kaufman) [2016, США, Триллер, HDRip] Dub (iTunes)

Reply to topic
 
Author
Message

Satyr ®

Gender: Unknown

Longevity: 11 years

Posts: 15401

Reputation: 55 [+] [-]

Satyr · Post 15-Dec-2016 15:15

[Quote] 

Импульс / Urge

«Новый оттенок твоего удовольствия»
- Страна: США
Жанр: Триллер
Год выпуска: 2016
Продолжительность: 01:30:36-Перевод: Профессиональный (дублированный) - iTunes
Cубтитры: нет-Режиссер: Аарон Кауфман / Aaron Kaufman-В ролях: Пирс Броснан, Эшли Грин, Алексис Нэп, Дэнни Мастерсон, Элисон Ломан, Крис Гир, Марко Кака, Ки Хо, Мэллори Томпсон-Описание: Абсолютно все ищут новых ощущений. А что если на земле есть место, где дают возможность испытать любой оттенок удовольствия? Группа друзей прилетает на остров и решает попробовать вещество, которое лишит их способности контролировать свои порывы. Теперь они могут делать все, о чем они так долго мечтали. Но как далеко они готовы зайти в поисках наивысшего наслаждения?- / -Релиз-группа: -Качество видео: HDRip
Формат видео: AVI
Видео: 656x352 (1.85:1), 23.976 fps, XviD build 73, 1017 Kbps
Аудио: 48.0 kHz, MPEG Layer 3, 2 ch, 128 kbps

MediaInfo

General
Complete name : Downloads\Urge.2016.HDRip.745MB.MegaPeer.avi
Format : AVI
Format/Info : Audio Video Interleave
File size : 746 MiB
Duration : 1h 30mn
Overall bit rate : 1 151 Kbps
Video #0
ID : 0
Format : MPEG-4 Visual
Format profile : Advanced Simple@L5
Format settings, BVOP : 1
Format settings, QPel : No
Format settings, GMC : No warppoints
Format settings, Matrix : Custom
Codec ID : XVID
Codec ID/Hint : XviD
Duration : 1h 30mn
Bit rate : 1 017 Kbps
Width : 656 pixels
Height : 352 pixels
Display aspect ratio : 1.85:1
Frame rate : 23.976 fps
Color space : YUV
Chroma subsampling : 4:2:0
Bit depth : 8 bits
Scan type : Progressive
Compression mode : Lossy
Bits/(Pixel*Frame) : 0.184
Stream size : 659 MiB (88%)
Writing library : XviD 73
Audio #1
ID : 1
Format : MPEG Audio
Format version : Version 1
Format profile : Layer 3
Mode : Joint stereo
Mode extension : MS Stereo
Codec ID : 55
Codec ID/Hint : MP3
Duration : 1h 30mn
Bit rate mode : Constant
Bit rate : 128 Kbps
Channel(s) : 2 channels
Sampling rate : 48.0 KHz
Compression mode : Lossy
Stream size : 83.0 MiB (11%)
Alignment : Aligned on interleaves
Interleave, duration : 167 ms (4.00 video frames)
Interleave, preload duration : 216 ms
Title : iTunes
Writing library : LAME3.99r
Encoding settings : -m j -V 4 -q 2 -lowpass 17 -b 128

Скриншот c названием фильма

Скриншоты

[Profile]  [PM] 
Display posts:    
Reply to topic

Current time is: 18-Sep 14:59

All times are UTC + 2



You cannot post new topics in this forum
You cannot reply to topics in this forum
You cannot edit your posts in this forum
You cannot delete your posts in this forum
You cannot vote in polls in this forum
You cannot attach files in this forum
You cannot download files in this forum