Спектральный анализ / Spectral (Ник Матьё / Nic Mathieu) [2016, США, Фантастика, боевик, триллер, WEBRip] MVO (@MUZOBOZ@) + Original Eng

Reply to topic
 
Author
Message

Satyr ®

Gender: Unknown

Longevity: 11 years

Posts: 15401

Reputation: 55 [+] [-]

Satyr · Post 16-Dec-2016 03:30

[Quote] 

Спектральный анализ / Spectral
«A supernatural Close Encounters of the Third Kind»
Страна: США
Жанр: Фантастика, боевик, триллер
Год выпуска: 2016
Продолжительность: 01:47:33-Перевод: Любительский (многоголосый закадровый) @MUZOBOZ@
Оригинальная аудиодорожка: английский
Cубтитры: нет-Режиссер: Ник Матьё / Nic Mathieu-В ролях: Эмили Мортимер, Клейн Кроуфорд, Макс Мартини, Джеймс Бэдж Дэйл, Брюс Гринвуд, Райан Роббинс, Урсула Паркер, Кори Хардрикт, Гонсало Менендес, Луис Одзава Чангчьен...-Описание: В Молдавии уже не первый год идёт война. Последнее время в зоне боевых действий стали появляться невидимые невооружённым глазом существа, которые мгновенно убивают вооружённых до зубов обученных профессионалов. Доктор Клайн принимал участие в разработке новейшего оружия, бессильного против этих существ, и теперь ему предстоит выяснить, что они такое и откуда взялись.-Сэмпл: http://multi-up.com/1130672- -Качество видео: WEBRip
Формат видео: AVI
Видео: 720x304 (2.35:1), 23.976 fps, XviD build 73, 1550 Kbps, 0.29 bit/pixel
Аудио 1: 48 kHz, AC3 Dolby Digital, 2 ch, 192 Kbps [Russ]
Аудио 2: 48 kHz, AC3 Dolby Digital, 6 ch, 192 Kbps [Eng]РЕКЛАМЫ НЕТ

MediaInfo

General
Complete name : Downloads\Spectral.2016.WEBRip.avi
Format : AVI
Format/Info : Audio Video Interleave
File size : 1.46 GiB
Duration : 1h 47mn
Overall bit rate : 1 948 Kbps
Writing application : VirtualDubMod 1.5.10.2 (build 2540/release)
Writing library : VirtualDubMod build 2540/release
Video #0
ID : 0
Format : MPEG-4 Visual
Format profile : Advanced Simple@L5
Format settings, BVOP : 2
Format settings, QPel : No
Format settings, GMC : No warppoints
Format settings, Matrix : Default (H.263)
Muxing mode : Packed bitstream
Codec ID : XVID
Codec ID/Hint : XviD
Duration : 1h 47mn
Bit rate : 1 550 Kbps
Width : 720 pixels
Height : 304 pixels
Display aspect ratio : 2.35:1
Frame rate : 23.976 fps
Color space : YUV
Chroma subsampling : 4:2:0
Bit depth : 8 bits
Scan type : Progressive
Compression mode : Lossy
Bits/(Pixel*Frame) : 0.295
Stream size : 1.16 GiB (80%)
Writing library : XviD 73
Audio #1
ID : 1
Format : AC-3
Format/Info : Audio Coding 3
Mode extension : CM (complete main)
Format settings, Endianness : Big
Codec ID : 2000
Duration : 1h 47mn
Bit rate mode : Constant
Bit rate : 192 Kbps
Channel(s) : 2 channels
Channel positions : Front: L R
Sampling rate : 48.0 KHz
Bit depth : 16 bits
Compression mode : Lossy
Delay relative to video : 500ms
Stream size : 148 MiB (10%)
Alignment : Split accross interleaves
Interleave, duration : 42 ms (1.00 video frame)
Interleave, preload duration : 500 ms
Title : RUS
Audio #2
ID : 2
Format : AC-3
Format/Info : Audio Coding 3
Mode extension : CM (complete main)
Format settings, Endianness : Big
Codec ID : 2000
Duration : 1h 47mn
Bit rate mode : Constant
Bit rate : 192 Kbps
Channel(s) : 6 channels
Channel positions : Front: L C R, Side: L R, LFE
Sampling rate : 48.0 KHz
Bit depth : 16 bits
Compression mode : Lossy
Stream size : 148 MiB (10%)
Alignment : Split accross interleaves
Interleave, duration : 42 ms (1.00 video frame)
Interleave, preload duration : 500 ms
Title : ENG

Скриншот c названием фильма

Скриншоты

[Profile]  [PM] 
Display posts:    
Reply to topic

Current time is: 01-Oct 07:06

All times are UTC + 2



You cannot post new topics in this forum
You cannot reply to topics in this forum
You cannot edit your posts in this forum
You cannot delete your posts in this forum
You cannot vote in polls in this forum
You cannot attach files in this forum
You cannot download files in this forum