Бриджит Джонс 3 / Bridget Jones\'s Baby (Шэрон Магуайр / Sharon Maguire) [2016, Ирландия, Великобритания, Франция, США, мелодрама, комедия, BDRip-AVC] Dub + Original + Sub Eng

Reply to topic
 
Author
Message

Satyr ®

Gender: Unknown

Longevity: 11 years

Posts: 15401

Reputation: 55 [+] [-]

Satyr · Post 16-Dec-2016 11:45

[Quote] 

Бриджит Джонс 3 / Bridget Jones's Baby- Страна: Ирландия, Великобритания, Франция, США | Miramax Films, Studio Canal, Universal Pictures, Work
Жанр: Мелодрама, комедия
Год выпуска: 2016
Продолжительность: 02:02:38
Перевод: Профессиональный (дублированный)
Cубтитры: английские (Full + SDH-Colored)
Оригинальная аудиодорожка: английский
Режиссер: Шэрон Магуайр / Sharon Maguire
В ролях: Рене Зеллвегер, Колин Фёрт, Патрик Демпси, Джемма Джонс, Джим Бродбент, Салли Филлипс, Джулиан Райнд-Татт, Ширли Хендерсон, Бен Уиллбонд, Пол Бенталл
Описание: Казалось бы, и карьера — в гору, и квартира — в центре Лондона, но она не была бы Бриджит Джонс, если бы не ее способность оказываться не в то время, не в том месте, не с тем мужчиной. И теперь она понятия не имеет, кто отец ее будущего ребенка: обаятельный миллиардер или известный адвокат. Одним словом, Бриджит Джонс в очень интересном положении.
Сэмпл: http://sendfile.su/1290837
Качество видео: BDRip-AVC (Bridget Jones's Baby (2016) 1080p BD-Remux HDClub)
Формат видео: MKV
Видео: x264, 1024x428 (2.40:1) 23,976 fps, ~1715 kbps, 0,163 bit/pixel
Аудио 1: 48 kHz, AC3 Dolby Digital, 3/2 (L,C,R,l,r) + LFE ch, ~384 kbps [русский, iTunes Russia]
Аудио 2: 48 kHz, AC3 Dolby Digital, 3/2 (L,C,R,l,r) + LFE ch, ~448 kbps [английский]

MediaInfo

General
Unique ID : 171141525715031405540525205730956914323 (0x80C0A8AE57EB6A69A28A7D4C64BFAE93)
Format : Matroska
Format version : Version 4 / Version 2
File size : 2.18 GiB
Duration : 2h 2mn
Overall bit rate : 2 549 Kbps
Movie name : Bridget Jones's Baby (2016)
Encoded date : UTC 2016-12-13 06:01:39
Writing application : mkvmerge v9.6.0 ('Slave To Your Mind') 64bit
Writing library : libebml v1.3.4 + libmatroska v1.4.5
Video #1
ID : 1
Format : AVC
Format/Info : Advanced Video Codec
Format profile : High@L4.1
Format settings, CABAC : Yes
Format settings, ReFrames : 11 frames
Codec ID : V_MPEG4/ISO/AVC
Duration : 2h 2mn
Bit rate : 1 715 Kbps
Width : 1 024 pixels
Height : 428 pixels
Display aspect ratio : 2.40:1
Frame rate mode : Constant
Frame rate : 23.976 (24000/1001) fps
Color space : YUV
Chroma subsampling : 4:2:0
Bit depth : 8 bits
Scan type : Progressive
Bits/(Pixel*Frame) : 0.163
Stream size : 1.47 GiB (67%)
Writing library : x264 core 146 r2538 121396c
Encoding settings : cabac=1 / ref=11 / deblock=1:-3:-2 / analyse=0x3:0x113 / me=umh / subme=10 / psy=1 / psy_rd=1.00:0.00 / mixed_ref=1 / me_range=32 / chroma_me=1 / trellis=2 / 8x8dct=1 / cqm=0 / deadzone=21,11 / fast_pskip=1 / chroma_qp_offset=-2 / threads=6 / lookahead_threads=1 / sliced_threads=0 / nr=0 / decimate=1 / interlaced=0 / bluray_compat=0 / constrained_intra=0 / bframes=10 / b_pyramid=2 / b_adapt=2 / b_bias=0 / direct=1 / weightb=1 / open_gop=0 / weightp=2 / keyint=250 / keyint_min=23 / scenecut=40 / intra_refresh=0 / rc_lookahead=50 / rc=2pass / mbtree=1 / bitrate=1715 / ratetol=1.0 / qcomp=0.60 / qpmin=0 / qpmax=69 / qpstep=4 / cplxblur=20.0 / qblur=0.5 / ip_ratio=1.40 / aq=3:1.00
Language : English
Default : Yes
Forced : No
Audio #2
ID : 2
Format : AC-3
Format/Info : Audio Coding 3
Mode extension : CM (complete main)
Format settings, Endianness : Big
Codec ID : A_AC3
Duration : 2h 2mn
Bit rate mode : Constant
Bit rate : 384 Kbps
Channel(s) : 6 channels
Channel positions : Front: L C R, Side: L R, LFE
Sampling rate : 48.0 KHz
Frame rate : 31.250 fps (1536 spf)
Compression mode : Lossy
Stream size : 337 MiB (15%)
Language : Russian
Default : Yes
Forced : No
Audio #3
ID : 3
Format : AC-3
Format/Info : Audio Coding 3
Mode extension : CM (complete main)
Format settings, Endianness : Big
Codec ID : A_AC3
Duration : 2h 2mn
Bit rate mode : Constant
Bit rate : 448 Kbps
Channel(s) : 6 channels
Channel positions : Front: L C R, Side: L R, LFE
Sampling rate : 48.0 KHz
Frame rate : 31.250 fps (1536 spf)
Compression mode : Lossy
Stream size : 393 MiB (18%)
Language : English
Default : No
Forced : No
Text #4
ID : 4
Format : UTF-8
Codec ID : S_TEXT/UTF8
Codec ID/Info : UTF-8 Plain Text
Duration : 1h 53mn
Bit rate : 70 bps
Count of elements : 1353
Stream size : 58.5 KiB (0%)
Title : Full
Language : English
Default : No
Forced : No
Text #5
ID : 5
Format : UTF-8
Codec ID : S_TEXT/UTF8
Codec ID/Info : UTF-8 Plain Text
Duration : 1h 55mn
Bit rate : 96 bps
Count of elements : 2136
Stream size : 81.3 KiB (0%)
Title : SDH-Colored
Language : English
Default : No
Forced : No

лог

raw [info]: 1024x428p 1:1 @ 24000/1001 fps (cfr)
x264 [info]: using SAR=1/1
x264 [info]: using cpu capabilities: MMX2 SSE2Fast SSSE3 SSE4.2 AVX XOP FMA4 FMA3 LZCNT BMI1
x264 [info]: profile High, level 4.1
x264 [info]: frame I:2065 Avg QP:14.35 size: 88780
x264 [info]: frame P:38972 Avg QP:18.09 size: 21066
x264 [info]: frame B:135397 Avg QP:22.18 size: 4230
x264 [info]: consecutive B-frames: 2.9% 2.5% 7.9% 21.4% 19.7% 34.8% 5.4% 1.6% 1.4% 1.3% 1.0%
x264 [info]: mb I I16..4: 6.8% 63.4% 29.9%
x264 [info]: mb P I16..4: 0.8% 6.0% 1.4% P16..4: 37.7% 28.1% 16.2% 0.0% 0.0% skip: 9.8%
x264 [info]: mb B I16..4: 0.0% 0.3% 0.1% B16..8: 40.2% 8.8% 2.5% direct: 2.8% skip:45.3% L0:43.3% L1:45.0% BI:11.6%
x264 [info]: 8x8 transform intra:69.4% inter:61.6%
x264 [info]: coded y,uvDC,uvAC intra: 87.2% 87.1% 71.9% inter: 16.0% 13.6% 4.8%
x264 [info]: i16 v,h,dc,p: 31% 14% 5% 50%
x264 [info]: i8 v,h,dc,ddl,ddr,vr,hd,vl,hu: 15% 10% 5% 8% 13% 14% 12% 12% 11%
x264 [info]: i4 v,h,dc,ddl,ddr,vr,hd,vl,hu: 15% 9% 4% 9% 14% 14% 12% 11% 12%
x264 [info]: i8c dc,h,v,p: 41% 19% 22% 19%
x264 [info]: Weighted P-Frames: Y:2.2% UV:1.4%
x264 [info]: ref P L0: 50.5% 12.7% 15.0% 6.0% 4.4% 3.3% 2.7% 1.6% 1.3% 1.2% 1.2% 0.2% 0.0%
x264 [info]: ref B L0: 75.0% 11.4% 5.6% 2.5% 1.8% 1.3% 1.1% 0.6% 0.4% 0.2%
x264 [info]: ref B L1: 91.5% 8.5%
x264 [info]: kb/s:1714.47
x264 [total]: encoded 176434 frames, 10.14 fps, 1714.47 kb/s

Скриншоты


[Profile]  [PM] 
Display posts:    
Reply to topic

Current time is: 29-Sep 19:29

All times are UTC + 2



You cannot post new topics in this forum
You cannot reply to topics in this forum
You cannot edit your posts in this forum
You cannot delete your posts in this forum
You cannot vote in polls in this forum
You cannot attach files in this forum
You cannot download files in this forum