Хуже, чем ложь / Misconduct (Шинтаро Шимосава / Shintaro Shimosawa) [2016, США, Триллер, драма, BDRip] Dub (iTunes)

Reply to topic
 
Author
Message

Satyr ®

Gender: Unknown

Longevity: 11 years

Posts: 15401

Reputation: 55 [+] [-]

Satyr · Post 16-Dec-2016 20:00

[Quote] 

Хуже, чем ложь / Misconduct
«Ambition can be deadly»
- Страна: США
Жанр: Tриллер, драма
Год выпуска: 2016
Продолжительность: 01:45:54-Перевод: Профессиональный (дублированный) - iTunes
Cубтитры: нет-Режиссер: Шинтаро Шимосава / Shintaro Shimosawa-В ролях: Джош Дюамель (Ben Cahill), Энтони Хопкинс (Arthur Denning), Аль Пачино (Charles Abrams), Элис Ив (Charlotte Cahill), Малин Акерман (Emily Hynes), Ли Бён-хон (The Accountant), Джулия Стайлз (Jane Clemente), Глен Пауэлл (Doug Fields), Маркус Лайл Браун (Bilson), Леа МакКендрик (Amy), Крис Маркетт (Giffords), Скай П. Маршалл (Hatty)-Описание: Когда амбициозный молодой юрист берется за большое дело против влиятельного и безжалостного исполнительного директора крупной фармацевтической компании, он оказывается втянут в мир шантажа и коррупции.- / -Качество видео: BDRip | исх. Misconduct.2016.REMUX.BluRay.1080p.AVC.DTS-HD.MA.5.1 |
Формат видео: AVI
Видео: 720x304 (2.35:1), 23.976 fps, XviD build 73, 1521 Kbps, 0.29 bit/pixel
Аудио: 48 kHz, AC3 Dolby Digital, 3/2 (L,C,R,l,r) + LFE ch, 384 Kbps-Релиз от: ExKinoRay by Twi7ter-

MediaInfo

General
Complete name : Downloads\Huzhe.chem.lozh.2016.D.BDRip_ExKinoRay
Format : AVI
Format/Info : Audio Video Interleave
File size : 1.42 GiB
Duration : 1h 45mn
Overall bit rate : 1 914 Kbps
Writing application : VirtualDubMod 1.5.10.3 (build 2550/release)
Video #0
ID : 0
Format : MPEG-4 Visual
Format profile : Advanced Simple@L5
Format settings, BVOP : 2
Format settings, QPel : No
Format settings, GMC : No warppoints
Format settings, Matrix : Custom
Codec ID : XVID
Codec ID/Hint : XviD
Duration : 1h 45mn
Bit rate : 1 521 Kbps
Width : 720 pixels
Height : 304 pixels
Display aspect ratio : 2.35:1
Frame rate : 23.976 fps
Color space : YUV
Chroma subsampling : 4:2:0
Bit depth : 8 bits
Scan type : Progressive
Compression mode : Lossy
Bits/(Pixel*Frame) : 0.290
Stream size : 1.12 GiB (79%)
Writing library : XviD 73
Audio #1
ID : 1
Format : AC-3
Format/Info : Audio Coding 3
Mode extension : CM (complete main)
Format settings, Endianness : Big
Codec ID : 2000
Duration : 1h 45mn
Bit rate mode : Constant
Bit rate : 384 Kbps
Channel(s) : 6 channels
Channel positions : Front: L C R, Side: L R, LFE
Sampling rate : 48.0 KHz
Bit depth : 16 bits
Compression mode : Lossy
Stream size : 291 MiB (20%)
Alignment : Aligned on interleaves
Interleave, duration : 42 ms (1.00 video frame)
Interleave, preload duration : 512 ms

Скриншот c названием фильма

Скриншоты

[Profile]  [PM] 
Display posts:    
Reply to topic

Current time is: 01-Oct 06:50

All times are UTC + 2



You cannot post new topics in this forum
You cannot reply to topics in this forum
You cannot edit your posts in this forum
You cannot delete your posts in this forum
You cannot vote in polls in this forum
You cannot attach files in this forum
You cannot download files in this forum